<?xml version="1.0" standalone="no"?>
<!DOCTYPE svg PUBLIC "-//W3C//DTD SVG 1.1//EN" "http://www.w3.org/Graphics/SVG/1.1/DTD/svg11.dtd" >
<svg>
<metadata>
Created by FontForge 20090914 at Wed Nov 17 07:03:15 2021
 By www-data

</metadata>
<defs>
<font id="DINPro-Bold" horiz-adv-x="543" >
  <font-face 
    font-family="DINPro-Bold"
    font-weight="700"
    font-stretch="normal"
    units-per-em="1000"
    panose-1="2 0 5 3 3 0 0 2 0 4"
    ascent="764"
    descent="-236"
    x-height="521"
    cap-height="712"
    bbox="-208 -234 1158 1023"
    underline-thickness="51"
    underline-position="-85"
    stemh="124"
    stemv="130"
    unicode-range="U+000D-U+FB02"
  />
<missing-glyph horiz-adv-x="573" 
d="M73 0v712h427v-712h-427zM160 87h253v538h-253v-538z" />
    <glyph glyph-name="fi" unicode="fi" horiz-adv-x="602" 
d="M311 407h-96v-407h-130v407h-54v99h54v65c0 74 46 149 152 149h74v-110h-50c-31 0 -46 -17 -46 -47v-57h96v-99zM530 0h-130v506h130v-506zM532 610h-134v106h134v-106z" />
    <glyph glyph-name="fl" unicode="fl" horiz-adv-x="648" 
d="M311 407h-96v-407h-130v407h-54v99h54v65c0 74 46 149 152 149h74v-110h-50c-31 0 -46 -17 -46 -47v-57h96v-99zM624 0h-74c-107 0 -152 75 -152 149v563h130v-555c0 -31 13 -47 46 -47h50v-110z" />
    <glyph glyph-name=".notdef" horiz-adv-x="573" 
d="M73 0v712h427v-712h-427zM160 87h253v538h-253v-538z" />
    <glyph glyph-name=".null" horiz-adv-x="0" 
 />
    <glyph glyph-name=".null" horiz-adv-x="0" 
 />
    <glyph glyph-name="CR" unicode="&#xd;" horiz-adv-x="232" 
 />
    <glyph glyph-name="space" unicode=" " horiz-adv-x="232" 
 />
    <glyph glyph-name="exclam" unicode="!" horiz-adv-x="347" 
d="M273 712l-33 -489h-96l-32 489h161zM267 0h-149v148h149v-148z" />
    <glyph glyph-name="quotedbl" unicode="&#x22;" horiz-adv-x="464" 
d="M190 501h-122v211h122v-211zM395 501h-121v211h121v-211z" />
    <glyph glyph-name="numbersign" unicode="#" horiz-adv-x="691" 
d="M643 420h-89l-16 -108h69v-122h-89l-30 -190h-137l31 190h-116l-30 -190h-137l30 190h-69v122h89l16 108h-70v121h89l28 177h137l-28 -177h116l28 177h136l-27 -177h69v-121zM417 420h-115l-17 -108h116z" />
    <glyph glyph-name="dollar" unicode="$" horiz-adv-x="619" 
d="M571 210c0 -122 -90 -197 -215 -212v-112h-101v108c-96 3 -171 28 -236 94l90 90c42 -42 99 -58 159 -60v181l-32 4c-60 8 -108 30 -138 60c-34 34 -51 79 -51 139c0 115 78 200 208 214v90h101v-89c81 -5 143 -30 197 -82l-88 -87c-33 32 -82 45 -123 48v-174l38 -6
c65 -10 106 -28 136 -56c38 -36 55 -87 55 -150zM435 206c0 25 -7 46 -22 60c-20 19 -45 22 -71 26v-172c60 7 93 37 93 86zM268 428v167c-58 -8 -87 -44 -87 -88c0 -18 6 -37 21 -51c16 -15 38 -24 66 -28z" />
    <glyph glyph-name="percent" unicode="%" horiz-adv-x="848" 
d="M796 131c0 -90 -67 -137 -145 -137c-79 0 -145 47 -145 137v99c0 90 66 137 145 137c78 0 145 -47 145 -137v-99zM342 482c0 -90 -67 -137 -145 -137c-79 0 -145 47 -145 137v99c0 90 66 137 145 137c78 0 145 -47 145 -137v-99zM644 712l-337 -712h-102l337 712h102z
M702 135v91c0 38 -19 57 -51 57c-33 0 -51 -19 -51 -57v-91c0 -38 18 -57 51 -57c32 0 51 19 51 57zM248 486v91c0 38 -19 57 -51 57c-33 0 -51 -19 -51 -57v-91c0 -38 19 -57 51 -57s51 19 51 57z" />
    <glyph glyph-name="ampersand" unicode="&#x26;" horiz-adv-x="721" 
d="M696 0h-165l-52 62c-33 -26 -82 -68 -184 -68c-157 0 -235 82 -235 216c0 91 66 150 128 191c-29 33 -71 83 -71 151c0 97 71 166 190 166c112 0 182 -71 182 -168c0 -55 -29 -92 -73 -124c0 0 -33 -25 -51 -37l120 -142c23 31 34 74 36 125h123
c-5 -92 -26 -165 -76 -221zM400 154l-142 167c-43 -30 -72 -58 -72 -109c0 -59 48 -100 108 -100c42 0 73 13 106 42zM366 549c0 33 -22 58 -59 58c-39 0 -59 -25 -59 -58c0 -26 22 -51 47 -80c10 6 30 20 30 20c23 16 41 35 41 60z" />
    <glyph glyph-name="quotesingle" unicode="'" horiz-adv-x="259" 
d="M191 501h-123v211h123v-211z" />
    <glyph glyph-name="parenleft" unicode="(" horiz-adv-x="336" 
d="M281 -7l-87 -87c-33 33 -65 64 -88 103c-23 40 -26 85 -26 129v436c0 44 3 89 26 129c23 39 55 70 88 103l87 -87c-24 -24 -39 -38 -56 -67c-10 -18 -15 -46 -15 -84v-424c0 -38 5 -66 15 -84c17 -29 32 -43 56 -67z" />
    <glyph glyph-name="parenright" unicode=")" horiz-adv-x="336" 
d="M256 138c0 -44 -3 -89 -26 -129c-23 -39 -55 -70 -88 -103l-88 88c24 24 39 37 56 66c10 18 15 46 15 84v424c0 38 -5 66 -15 84c-17 29 -32 42 -56 66l88 88c33 -33 65 -64 88 -103c23 -40 26 -85 26 -129v-436z" />
    <glyph glyph-name="asterisk" unicode="*" horiz-adv-x="494" 
d="M440 460l-46 -79l-105 66l4 -125h-92l5 125l-106 -66l-45 79l110 58l-110 58l45 80l106 -67l-5 125h92l-4 -125l105 67l46 -80l-111 -58z" />
    <glyph glyph-name="plus" unicode="+" 
d="M493 216h-160v-160h-122v160h-161v122h161v160h122v-160h160v-122z" />
    <glyph glyph-name="comma" unicode="," horiz-adv-x="279" 
d="M211 -55l-143 -110v307h143v-197z" />
    <glyph glyph-name="hyphen" unicode="-" horiz-adv-x="426" 
d="M367 225h-308v121h308v-121z" />
    <glyph glyph-name="period" unicode="." horiz-adv-x="285" 
d="M217 0h-149v148h149v-148z" />
    <glyph glyph-name="slash" unicode="/" horiz-adv-x="403" 
d="M407 786l-285 -860h-122l285 860h122z" />
    <glyph glyph-name="zero" unicode="0" 
d="M488 206c0 -136 -100 -212 -216 -212s-217 76 -217 212v300c0 136 101 212 217 212s216 -76 216 -212v-300zM358 207v297c0 60 -35 97 -86 97s-87 -37 -87 -97v-297c0 -60 36 -96 87 -96s86 36 86 96z" />
    <glyph glyph-name="one" unicode="1" 
d="M378 0h-130v572l-145 -126v140l145 126h130v-712z" />
    <glyph glyph-name="two" unicode="2" 
d="M492 0h-433v117l266 309c26 31 37 53 37 86c0 53 -31 89 -86 89c-43 0 -87 -22 -87 -91h-130c0 130 95 208 217 208c126 0 216 -79 216 -207c0 -69 -27 -106 -76 -163l-199 -231h275v-117z" />
    <glyph glyph-name="three" unicode="3" 
d="M495 206c0 -142 -104 -212 -226 -212c-116 0 -225 61 -227 210h130c2 -64 46 -93 97 -93c56 0 96 35 96 99c0 59 -36 98 -100 98h-19v113h19c63 0 90 39 90 89c0 60 -40 91 -87 91c-49 0 -85 -32 -88 -86h-130c3 127 98 203 218 203c126 0 217 -84 217 -204
c0 -77 -35 -121 -82 -146c51 -27 92 -76 92 -162z" />
    <glyph glyph-name="four" unicode="4" 
d="M512 101h-65v-101h-125v101h-291v123l244 488h142l-244 -488h149v133h125v-133h65v-123z" />
    <glyph glyph-name="five" unicode="5" 
d="M494 240c0 -80 -11 -136 -63 -188c-32 -32 -83 -58 -157 -58s-128 26 -159 57c-44 44 -54 96 -58 148h130c7 -56 33 -88 87 -88c25 0 46 7 62 23c23 23 28 61 28 106c0 82 -24 128 -87 128c-53 0 -77 -30 -86 -58h-119v402h406v-117h-288v-153c19 18 59 36 107 36
c59 0 104 -19 133 -48c56 -56 64 -123 64 -190z" />
    <glyph glyph-name="six" unicode="6" 
d="M492 216c0 -140 -96 -222 -222 -222s-222 79 -222 220c0 65 28 125 60 190l150 308h142l-148 -294c17 7 36 9 53 9c96 0 187 -79 187 -211zM362 215c0 63 -37 104 -92 104c-53 0 -92 -38 -92 -104s39 -104 92 -104s92 38 92 104z" />
    <glyph glyph-name="seven" unicode="7" 
d="M503 595l-231 -595h-141l231 595h-188v-112h-124v229h453v-117z" />
    <glyph glyph-name="eight" unicode="8" 
d="M500 207c0 -138 -102 -213 -228 -213s-228 75 -228 213c0 87 50 134 89 160c-36 25 -80 72 -80 148c0 126 100 203 219 203s218 -77 218 -203c0 -76 -44 -123 -80 -148c39 -26 90 -73 90 -160zM370 209c0 55 -43 99 -98 99s-98 -44 -98 -99s43 -98 98 -98s98 43 98 98z
M360 511c0 51 -37 90 -88 90s-89 -39 -89 -90c0 -52 38 -90 89 -90s88 38 88 90z" />
    <glyph glyph-name="nine" unicode="9" 
d="M495 498c0 -65 -27 -125 -59 -190l-151 -308h-141l148 294c-17 -7 -36 -9 -53 -9c-96 0 -188 79 -188 211c0 140 96 222 222 222s222 -79 222 -220zM365 497c0 66 -39 104 -92 104s-92 -38 -92 -104c0 -63 37 -104 92 -104c53 0 92 38 92 104z" />
    <glyph glyph-name="colon" unicode=":" horiz-adv-x="309" 
d="M241 271h-148v148h148v-148zM241 0h-148v148h148v-148z" />
    <glyph glyph-name="semicolon" unicode=";" horiz-adv-x="309" 
d="M238 -55l-142 -110v307h142v-197zM241 271h-148v148h148v-148z" />
    <glyph glyph-name="less" unicode="&#x3c;" 
d="M475 42l-406 187v113l406 187v-137l-241 -107l241 -106v-137z" />
    <glyph glyph-name="equal" unicode="=" 
d="M493 333h-443v122h443v-122zM493 116h-443v122h443v-122z" />
    <glyph glyph-name="greater" unicode="&#x3e;" 
d="M475 229l-406 -187v137l241 106l-241 107v137l406 -187v-113z" />
    <glyph glyph-name="question" unicode="?" horiz-adv-x="523" 
d="M487 518c0 -50 -21 -88 -49 -125l-74 -98c-10 -13 -18 -34 -18 -51v-21h-130v30c0 43 12 70 38 104l74 95c16 21 29 45 29 67c0 47 -31 82 -81 82c-53 0 -80 -37 -80 -83h-130c0 124 94 200 210 200c113 0 211 -73 211 -200zM350 0h-138v133h138v-133z" />
    <glyph glyph-name="at" unicode="@" horiz-adv-x="758" 
d="M700 -3l-121 3v46c-32 -35 -65 -52 -120 -52c-52 0 -96 18 -126 50c-41 44 -47 97 -47 187c0 89 6 141 46 185c29 32 74 51 126 51c51 0 88 -16 118 -49v45c0 42 -8 75 -35 102c-26 26 -60 35 -100 35h-124c-40 0 -72 -7 -100 -35c-29 -29 -35 -60 -35 -102v-289
c0 -50 11 -70 44 -99l-90 -90c-57 51 -79 92 -79 182v299c0 81 16 143 62 189s107 61 188 61h144c78 0 141 -14 188 -61c46 -46 61 -107 61 -189v-469zM576 231c0 79 -19 128 -83 128s-82 -49 -82 -128s18 -129 82 -129s83 50 83 129z" />
    <glyph glyph-name="A" unicode="A" horiz-adv-x="638" 
d="M633 0h-145l-42 126h-253l-43 -126h-145l259 712h109zM409 243l-87 259l-90 -259h177z" />
    <glyph glyph-name="B" unicode="B" horiz-adv-x="658" 
d="M599 205c0 -133 -91 -205 -218 -205h-298v712h286c139 0 220 -78 220 -200c0 -79 -52 -130 -88 -147c43 -20 98 -65 98 -160zM460 212c0 48 -30 87 -93 87h-145v-175h145c63 0 93 40 93 88zM450 506c0 49 -33 82 -92 82h-136v-164h136c59 0 92 33 92 82z" />
    <glyph glyph-name="C" unicode="C" horiz-adv-x="620" 
d="M583 219c-24 -145 -126 -225 -262 -225c-76 0 -140 26 -192 78c-31 31 -50 67 -58 107s-12 99 -12 177s4 137 12 177c8 41 27 76 58 107c52 52 116 78 192 78c137 0 238 -80 262 -225h-141c-15 61 -53 101 -120 101c-38 0 -68 -12 -89 -37c-29 -31 -35 -63 -35 -201
s6 -170 35 -201c21 -25 51 -37 89 -37c67 0 105 40 120 101h141z" />
    <glyph glyph-name="D" unicode="D" horiz-adv-x="659" 
d="M600 359c0 -107 8 -211 -72 -291c-47 -47 -114 -68 -188 -68h-257v712h257c74 0 141 -21 188 -68c80 -80 72 -178 72 -285zM461 359c0 108 -4 153 -30 185c-24 29 -56 44 -104 44h-105v-464h105c48 0 80 15 104 44c26 32 30 83 30 191z" />
    <glyph glyph-name="E" unicode="E" horiz-adv-x="605" 
d="M552 0h-469v712h469v-124h-330v-167h281v-124h-281v-173h330v-124z" />
    <glyph glyph-name="F" unicode="F" horiz-adv-x="590" 
d="M552 588h-330v-175h281v-124h-281v-289h-139v712h469v-124z" />
    <glyph glyph-name="G" unicode="G" horiz-adv-x="637" 
d="M590 292c0 -104 -19 -165 -68 -217c-55 -56 -121 -81 -201 -81c-76 0 -140 26 -192 78c-31 31 -50 67 -58 107s-12 99 -12 177s4 137 12 177c8 41 27 76 58 107c52 52 116 78 192 78c162 0 249 -104 268 -228h-140c-17 69 -59 104 -128 104c-37 0 -67 -13 -89 -38
c-26 -33 -34 -59 -34 -200c0 -140 6 -168 34 -201c21 -25 51 -37 89 -37c41 0 74 13 99 40c21 24 32 56 32 95v27h-131v116h269v-104z" />
    <glyph glyph-name="H" unicode="H" horiz-adv-x="685" 
d="M602 0h-139v298h-241v-298h-139v712h139v-291h241v291h139v-712z" />
    <glyph glyph-name="I" unicode="I" horiz-adv-x="305" 
d="M222 0h-139v712h139v-712z" />
    <glyph glyph-name="J" unicode="J" horiz-adv-x="511" 
d="M437 234c0 -157 -119 -240 -251 -240c-77 0 -130 20 -183 73l92 91c23 -23 45 -40 91 -40c68 0 112 40 112 122v472h139v-478z" />
    <glyph glyph-name="K" unicode="K" horiz-adv-x="665" 
d="M659 0h-162l-183 324l-92 -110v-214h-139v712h139v-310l251 310h169l-236 -283z" />
    <glyph glyph-name="L" unicode="L" horiz-adv-x="575" 
d="M545 0h-462v712h139v-588h323v-124z" />
    <glyph glyph-name="M" unicode="M" horiz-adv-x="811" 
d="M728 0h-139v415l-136 -270h-94l-137 270v-415h-139v712h137l186 -385l185 385h137v-712z" />
    <glyph glyph-name="N" unicode="N" horiz-adv-x="711" 
d="M628 0h-124l-282 437v-437h-139v712h124l282 -436v436h139v-712z" />
    <glyph glyph-name="O" unicode="O" horiz-adv-x="644" 
d="M585 356c0 -123 1 -212 -71 -284c-50 -50 -111 -78 -192 -78s-143 28 -193 78c-72 72 -70 161 -70 284s-2 212 70 284c50 50 112 78 193 78s142 -28 192 -78c72 -72 71 -161 71 -284zM446 356c0 137 -8 170 -35 200c-20 23 -51 38 -89 38s-70 -15 -90 -38
c-27 -30 -34 -63 -34 -200s7 -170 34 -200c20 -23 52 -38 90 -38s69 15 89 38c27 30 35 63 35 200z" />
    <glyph glyph-name="P" unicode="P" horiz-adv-x="628" 
d="M594 490c0 -121 -88 -222 -235 -222h-137v-268h-139v712h276c147 0 235 -101 235 -222zM455 490c0 58 -40 98 -103 98h-130v-195h130c63 0 103 39 103 97z" />
    <glyph glyph-name="Q" unicode="Q" horiz-adv-x="643" 
d="M602 43l-73 -73l-63 63c-40 -26 -88 -39 -144 -39c-81 0 -143 28 -193 78c-72 72 -70 161 -70 284s-2 212 70 284c50 50 112 78 193 78s142 -28 192 -78c72 -72 71 -161 71 -284c0 -107 1 -186 -44 -252zM446 356c0 137 -8 170 -35 200c-20 23 -51 38 -89 38
s-70 -15 -90 -38c-27 -30 -34 -63 -34 -200s7 -170 34 -200c20 -23 52 -38 90 -38c17 0 33 4 46 13l-62 61l74 73l53 -53c11 31 13 72 13 144z" />
    <glyph glyph-name="R" unicode="R" horiz-adv-x="654" 
d="M622 0h-161l-139 284h-100v-284h-139v712h279c145 0 231 -99 231 -218c0 -100 -61 -162 -130 -187zM454 494c0 55 -40 94 -101 94h-131v-188h131c61 0 101 39 101 94z" />
    <glyph glyph-name="S" unicode="S" horiz-adv-x="591" 
d="M543 210c0 -138 -115 -216 -264 -216c-108 0 -190 23 -260 94l90 90c45 -45 106 -60 172 -60c82 0 126 31 126 88c0 25 -7 46 -22 60c-14 13 -30 20 -63 25l-86 12c-61 9 -106 28 -138 59c-34 34 -51 80 -51 140c0 127 94 216 248 216c98 0 169 -24 230 -83l-88 -87
c-45 43 -99 49 -146 49c-74 0 -110 -41 -110 -90c0 -18 6 -37 21 -51c14 -13 37 -24 66 -28l84 -12c65 -9 106 -27 136 -55c38 -36 55 -88 55 -151z" />
    <glyph glyph-name="T" unicode="T" horiz-adv-x="571" 
d="M541 588h-186v-588h-139v588h-186v124h511v-124z" />
    <glyph glyph-name="U" unicode="U" horiz-adv-x="668" 
d="M596 244c0 -151 -116 -250 -262 -250s-262 99 -262 250v468h139v-463c0 -82 48 -131 123 -131s124 49 124 131v463h138v-468z" />
    <glyph glyph-name="V" unicode="V" horiz-adv-x="581" 
d="M578 712l-236 -712h-104l-235 712h144l143 -464l143 464h145z" />
    <glyph glyph-name="W" unicode="W" horiz-adv-x="887" 
d="M881 712l-191 -712h-116l-131 432l-131 -432h-116l-190 712h145l110 -449l130 449h104l130 -449l111 449h145z" />
    <glyph glyph-name="X" unicode="X" horiz-adv-x="603" 
d="M598 0h-159l-138 248l-137 -248h-159l221 365l-207 347h158l124 -230l125 230h157l-207 -347z" />
    <glyph glyph-name="Y" unicode="Y" horiz-adv-x="572" 
d="M569 712l-214 -420v-292h-138v292l-214 420h151l133 -287l131 287h151z" />
    <glyph glyph-name="Z" unicode="Z" horiz-adv-x="548" 
d="M508 0h-468v112l304 476h-291v124h455v-110l-305 -478h305v-124z" />
    <glyph glyph-name="bracketleft" unicode="[" horiz-adv-x="378" 
d="M337 -74h-257v860h257v-117h-127v-626h127v-117z" />
    <glyph glyph-name="backslash" unicode="\" horiz-adv-x="403" 
d="M403 -74h-122l-281 847h122z" />
    <glyph glyph-name="bracketright" unicode="]" horiz-adv-x="378" 
d="M299 -74h-257v116h127v628h-127v116h257v-860z" />
    <glyph glyph-name="asciicircum" unicode="^" horiz-adv-x="602" 
d="M539 389h-136l-102 188l-102 -188h-136l178 330h120z" />
    <glyph glyph-name="underscore" unicode="_" horiz-adv-x="602" 
d="M602 -178h-602v87h602v-87z" />
    <glyph glyph-name="grave" unicode="`" horiz-adv-x="500" 
d="M305 604h-87l-114 170h137z" />
    <glyph glyph-name="a" unicode="a" horiz-adv-x="534" 
d="M467 0h-127v45c-35 -35 -68 -50 -128 -50c-59 0 -102 15 -133 46c-28 29 -43 71 -43 117c0 83 57 151 178 151h123v26c0 57 -28 82 -97 82c-50 0 -73 -12 -100 -43l-83 81c51 56 101 72 188 72c146 0 222 -62 222 -184v-343zM337 192v28h-103c-47 0 -73 -22 -73 -59
c0 -36 24 -60 75 -60c36 0 59 3 82 25c14 13 19 34 19 66z" />
    <glyph glyph-name="b" unicode="b" horiz-adv-x="560" 
d="M509 261c0 -78 -1 -168 -53 -220c-29 -29 -76 -47 -127 -47c-55 0 -94 15 -130 55v-49h-126v712h130v-237c34 38 73 52 126 52c51 0 98 -18 127 -47c52 -52 53 -141 53 -219zM379 261c0 85 -10 149 -88 149s-88 -64 -88 -149s10 -150 88 -150s88 65 88 150z" />
    <glyph glyph-name="c" unicode="c" horiz-adv-x="480" 
d="M452 65c-46 -48 -100 -71 -172 -71c-104 0 -233 56 -233 267s129 266 233 266c72 0 126 -22 172 -70l-88 -88c-27 29 -50 41 -84 41c-31 0 -55 -11 -74 -34c-20 -25 -29 -60 -29 -115s9 -91 29 -116c19 -23 43 -34 74 -34c34 0 57 12 84 41z" />
    <glyph glyph-name="d" unicode="d" horiz-adv-x="561" 
d="M488 0h-127v49c-36 -40 -74 -55 -129 -55c-51 0 -99 18 -128 47c-52 52 -53 142 -53 220s1 167 53 219c29 29 76 47 127 47c53 0 93 -14 127 -52v237h130v-712zM358 261c0 85 -11 149 -89 149s-88 -64 -88 -149s10 -150 88 -150s89 65 89 150z" />
    <glyph glyph-name="e" unicode="e" horiz-adv-x="548" 
d="M501 220h-326c0 -67 41 -116 114 -116c57 0 85 16 118 49l79 -77c-53 -53 -104 -82 -198 -82c-123 0 -241 56 -241 267c0 170 92 266 227 266c145 0 227 -106 227 -249v-58zM373 309c-1 23 -4 37 -12 56c-14 31 -43 54 -87 54s-73 -23 -87 -54c-8 -19 -11 -33 -12 -56
h198z" />
    <glyph glyph-name="f" unicode="f" horiz-adv-x="342" 
d="M315 407h-96v-407h-130v407h-54v99h54v65c0 74 46 149 152 149h74v-110h-51c-31 0 -45 -17 -45 -47v-57h96v-99z" />
    <glyph glyph-name="g" unicode="g" horiz-adv-x="555" 
d="M482 19c0 -125 -89 -216 -229 -216c-80 0 -135 16 -189 68l81 82c29 -28 58 -40 102 -40c78 0 105 55 105 108v53c-34 -38 -73 -52 -124 -52s-95 17 -124 46c-49 49 -53 116 -53 207s4 157 53 206c29 29 74 46 125 46c55 0 91 -15 127 -55v49h126v-502zM352 275
c0 69 -9 135 -86 135s-85 -66 -85 -135s8 -136 85 -136s86 67 86 136z" />
    <glyph glyph-name="h" unicode="h" horiz-adv-x="569" 
d="M502 0h-130v318c0 69 -44 92 -85 92s-84 -24 -84 -92v-318h-130v712h130v-239c35 36 79 54 125 54c114 0 174 -80 174 -190v-337z" />
    <glyph glyph-name="i" unicode="i" horiz-adv-x="275" 
d="M203 0h-130v521h130v-521zM204 610h-133v106h133v-106z" />
    <glyph glyph-name="j" unicode="j" horiz-adv-x="275" 
d="M203 -46c0 -74 -45 -149 -152 -149h-74v110h50c33 0 46 16 46 47v559h130v-567zM204 610h-133v106h133v-106z" />
    <glyph glyph-name="k" unicode="k" horiz-adv-x="559" 
d="M547 0h-161l-128 217l-55 -62v-155h-130v712h130v-404l173 213h157l-186 -210z" />
    <glyph glyph-name="l" unicode="l" horiz-adv-x="325" 
d="M294 0h-74c-107 0 -152 75 -152 149v563h130v-555c0 -31 13 -47 46 -47h50v-110z" />
    <glyph glyph-name="m" unicode="m" horiz-adv-x="876" 
d="M809 0h-130v315c0 71 -45 95 -86 95c-40 0 -87 -24 -87 -92v-318h-130v315c0 71 -45 95 -86 95s-87 -24 -87 -95v-315h-130v521h127v-48c34 35 82 54 130 54c58 0 105 -21 138 -66c44 46 91 66 156 66c52 0 99 -17 128 -46c42 -42 57 -91 57 -148v-333z" />
    <glyph glyph-name="n" unicode="n" horiz-adv-x="573" 
d="M506 0h-130v315c0 71 -45 95 -86 95s-87 -24 -87 -95v-315h-130v521h127v-48c34 36 82 54 130 54c52 0 94 -17 123 -46c42 -42 53 -91 53 -148v-333z" />
    <glyph glyph-name="o" unicode="o" 
d="M492 261c0 -95 -12 -154 -59 -203c-32 -34 -85 -64 -162 -64s-129 30 -161 64c-47 49 -59 108 -59 203c0 94 12 153 59 202c32 34 84 64 161 64s130 -30 162 -64c47 -49 59 -108 59 -202zM362 261c0 54 -3 99 -30 126c-15 15 -35 23 -61 23s-45 -8 -60 -23
c-27 -27 -30 -72 -30 -126s3 -100 30 -127c15 -15 34 -23 60 -23s46 8 61 23c27 27 30 73 30 127z" />
    <glyph glyph-name="p" unicode="p" horiz-adv-x="560" 
d="M509 261c0 -78 -1 -168 -53 -220c-29 -29 -76 -47 -127 -47c-53 0 -92 14 -126 52v-237h-130v712h126v-49c36 40 75 55 130 55c51 0 98 -18 127 -47c52 -52 53 -141 53 -219zM379 261c0 85 -10 149 -88 149s-88 -64 -88 -149s10 -150 88 -150s88 65 88 150z" />
    <glyph glyph-name="q" unicode="q" horiz-adv-x="561" 
d="M488 -191h-130v237c-34 -38 -74 -52 -127 -52c-51 0 -98 18 -127 47c-52 52 -53 142 -53 220s1 167 53 219c29 29 77 47 128 47c55 0 93 -15 129 -55v49h127v-712zM358 261c0 85 -11 149 -89 149s-88 -64 -88 -149s10 -150 88 -150s89 65 89 150z" />
    <glyph glyph-name="r" unicode="r" horiz-adv-x="455" 
d="M454 478l-98 -99c-20 20 -37 31 -69 31c-40 0 -84 -30 -84 -96v-314h-130v521h127v-50c25 30 75 56 131 56c51 0 87 -13 123 -49z" />
    <glyph glyph-name="s" unicode="s" horiz-adv-x="501" 
d="M465 164c0 -115 -98 -170 -221 -170c-82 0 -156 9 -222 75l85 85c43 -43 99 -49 139 -49c45 0 92 15 92 54c0 26 -14 44 -55 48l-82 8c-94 9 -152 50 -152 146c0 108 95 166 201 166c81 0 149 -14 199 -61l-80 -81c-30 27 -76 35 -121 35c-52 0 -74 -24 -74 -50
c0 -19 8 -41 54 -45l82 -8c103 -10 155 -65 155 -153z" />
    <glyph glyph-name="t" unicode="t" horiz-adv-x="352" 
d="M307 0h-71c-106 0 -151 75 -151 149v258h-55v99h55v154h130v-154h92v-99h-92v-250c0 -30 14 -47 45 -47h47v-110z" />
    <glyph glyph-name="u" unicode="u" horiz-adv-x="573" 
d="M500 0h-127v48c-34 -36 -82 -54 -130 -54c-52 0 -94 17 -123 46c-42 42 -53 91 -53 148v333h130v-315c0 -71 45 -95 86 -95s87 24 87 95v315h130v-521z" />
    <glyph glyph-name="v" unicode="v" horiz-adv-x="493" 
d="M489 521l-191 -521h-102l-192 521h137l106 -322l105 322h137z" />
    <glyph glyph-name="w" unicode="w" horiz-adv-x="759" 
d="M755 521l-159 -521h-107l-109 327l-109 -327h-107l-160 521h138l84 -322l106 322h95l107 -322l84 322h137z" />
    <glyph glyph-name="x" unicode="x" horiz-adv-x="527" 
d="M515 0h-156l-96 156l-95 -156h-156l180 266l-173 255h156l88 -149l89 149h156l-173 -255z" />
    <glyph glyph-name="y" unicode="y" horiz-adv-x="494" 
d="M490 521l-223 -605c-11 -29 -23 -51 -39 -67c-30 -30 -69 -40 -112 -40h-51v117h30c37 0 52 9 65 47l22 64l-178 484h137l108 -322l104 322h137z" />
    <glyph glyph-name="z" unicode="z" horiz-adv-x="478" 
d="M434 0h-397v99l231 305h-218v117h384v-99l-234 -305h234v-117z" />
    <glyph glyph-name="braceleft" unicode="{" horiz-adv-x="457" 
d="M414 -74h-102c-52 0 -88 13 -112 37c-29 29 -42 66 -42 111v145c0 28 -5 48 -17 60c-11 11 -28 19 -52 19h-46v116h46c24 0 41 8 52 19c12 12 17 32 17 60v145c0 45 13 82 42 111c24 24 60 37 112 37h102v-117h-53c-30 0 -46 -3 -57 -14c-11 -12 -16 -30 -16 -64v-135
c0 -72 -43 -90 -69 -100c26 -10 69 -28 69 -100v-135c0 -34 5 -52 16 -64c11 -11 27 -14 57 -14h53v-117z" />
    <glyph glyph-name="bar" unicode="|" horiz-adv-x="350" 
d="M240 -74h-130v860h130v-860z" />
    <glyph glyph-name="braceright" unicode="}" horiz-adv-x="457" 
d="M414 298h-46c-24 0 -41 -8 -52 -19c-12 -12 -17 -32 -17 -60v-145c0 -45 -13 -82 -42 -111c-24 -24 -60 -37 -112 -37h-102v117h53c30 0 46 3 57 14c11 12 16 30 16 64v135c0 72 43 90 69 100c-26 10 -69 28 -69 100v135c0 34 -5 52 -16 64c-11 11 -27 14 -57 14h-53v117
h102c52 0 88 -13 112 -37c29 -29 42 -66 42 -111v-145c0 -28 5 -48 17 -60c11 -11 28 -19 52 -19h46v-116z" />
    <glyph glyph-name="asciitilde" unicode="~" horiz-adv-x="606" 
d="M569 281c-62 -62 -104 -86 -165 -86c-41 0 -74 11 -117 34c-29 15 -53 24 -82 24c-27 0 -49 -5 -86 -42l-82 82c62 62 103 86 164 86c41 0 74 -11 117 -34c29 -15 52 -24 81 -24c27 0 50 5 87 42z" />
    <glyph glyph-name="uni00A0" unicode="&#xa0;" horiz-adv-x="232" 
 />
    <glyph glyph-name="exclamdown" unicode="&#xa1;" horiz-adv-x="347" 
d="M236 -191h-161l32 489h97zM224 388h-137v133h137v-133z" />
    <glyph glyph-name="cent" unicode="&#xa2;" horiz-adv-x="499" 
d="M469 180c-38 -40 -80 -65 -136 -75v-105h-101v105c-105 21 -185 107 -185 261s80 240 185 261v85h101v-85c56 -10 98 -35 136 -75l-86 -84c-20 21 -37 34 -64 41v-286c27 7 44 20 64 41zM246 225v282c-15 -4 -28 -14 -38 -26c-20 -25 -31 -60 -31 -115s11 -90 31 -115
c10 -13 23 -22 38 -26z" />
    <glyph glyph-name="sterling" unicode="&#xa3;" horiz-adv-x="579" 
d="M534 0h-433v297h-61v100h61v81c0 157 119 240 251 240c77 0 129 -20 182 -73l-91 -91c-23 23 -45 40 -91 40c-68 0 -113 -40 -113 -122v-75h113v-100h-113v-173h295v-124z" />
    <glyph glyph-name="currency" unicode="&#xa4;" horiz-adv-x="669" 
d="M610 96l-85 -86l-74 73c-34 -20 -74 -32 -117 -32s-82 12 -116 32l-74 -73l-86 86l74 73c-20 34 -33 74 -33 117s13 83 33 117l-74 73l86 86l74 -73c34 20 73 32 116 32s83 -12 117 -32l74 73l85 -86l-73 -73c20 -34 32 -74 32 -117s-12 -83 -32 -117zM452 286
c0 65 -53 117 -118 117s-117 -52 -117 -117s52 -117 117 -117s118 52 118 117z" />
    <glyph glyph-name="yen" unicode="&#xa5;" horiz-adv-x="571" 
d="M568 712l-136 -270h74v-100h-125l-26 -50v-51h151v-100h-151v-141h-138v141h-152v100h152v51l-26 50h-126v100h75l-137 270h151l132 -288l132 288h150z" />
    <glyph glyph-name="brokenbar" unicode="&#xa6;" horiz-adv-x="353" 
d="M240 436h-130v350h130v-350zM240 -74h-130v350h130v-350z" />
    <glyph glyph-name="section" unicode="&#xa7;" horiz-adv-x="531" 
d="M473 274c0 -74 -53 -128 -90 -149c44 -22 81 -62 81 -139c0 -123 -99 -183 -198 -183c-97 0 -197 51 -199 178h125c2 -37 29 -63 74 -63c46 0 73 26 73 64c0 27 -16 56 -70 74l-62 21c-96 32 -146 82 -146 188c0 74 52 128 91 149c-42 22 -76 58 -76 131
c0 90 62 173 192 173c131 0 191 -76 192 -172h-122c-2 44 -31 61 -70 61c-46 0 -70 -25 -70 -59c0 -31 24 -52 67 -66l62 -20c96 -31 146 -83 146 -188zM348 269c0 34 -11 54 -25 68c-13 12 -31 21 -56 21s-45 -9 -57 -21c-14 -14 -24 -33 -24 -68c0 -36 12 -55 24 -67
s32 -21 57 -21s44 9 56 21s25 31 25 67z" />
    <glyph glyph-name="dieresis" unicode="&#xa8;" horiz-adv-x="500" 
d="M416 606h-111v125h111v-125zM195 606h-111v125h111v-125z" />
    <glyph glyph-name="copyright" unicode="&#xa9;" horiz-adv-x="844" 
d="M784 356c0 -200 -162 -362 -362 -362s-362 162 -362 362s162 362 362 362s362 -162 362 -362zM697 356c0 161 -120 281 -275 281s-276 -120 -276 -281s121 -281 276 -281s275 120 275 281zM561 212c-37 -33 -76 -52 -132 -52c-100 0 -179 68 -179 196s79 197 179 197
c56 0 94 -20 132 -53l-56 -56c-27 23 -46 32 -76 32c-63 0 -94 -47 -94 -120s31 -120 94 -120c30 0 49 9 76 32z" />
    <glyph glyph-name="ordfeminine" unicode="&#xaa;" horiz-adv-x="454" 
d="M392 296h-103v36c-28 -28 -53 -40 -101 -40c-47 0 -81 13 -105 38c-23 23 -35 55 -35 92c0 66 45 121 142 121h97v20c0 45 -22 65 -77 65c-39 0 -57 -9 -79 -34l-67 65c41 45 82 58 151 58c116 0 177 -50 177 -147v-274zM287 449v23h-81c-37 0 -56 -19 -56 -47
s18 -46 57 -46c29 0 48 3 65 19c11 10 15 26 15 51z" />
    <glyph glyph-name="guillemotleft" unicode="&#xab;" horiz-adv-x="628" 
d="M562 27l-250 248l250 248v-155l-96 -93l96 -93v-155zM283 27l-249 248l249 248v-155l-94 -93l94 -93v-155z" />
    <glyph glyph-name="logicalnot" unicode="&#xac;" 
d="M497 94h-121v145h-330v121h451v-266z" />
    <glyph glyph-name="uni00AD" unicode="&#xad;" horiz-adv-x="426" 
d="M367 225h-308v121h308v-121z" />
    <glyph glyph-name="registered" unicode="&#xae;" horiz-adv-x="844" 
d="M784 356c0 -200 -162 -362 -362 -362s-362 162 -362 362s162 362 362 362s362 -162 362 -362zM698 356c0 161 -120 281 -276 281s-276 -120 -276 -281s120 -281 276 -281s276 120 276 281zM585 164h-98l-70 149h-41v-149h-86v385h157c78 0 128 -57 128 -121
c0 -53 -34 -87 -71 -102zM489 428c0 27 -21 50 -53 50h-60v-100h60c32 0 53 23 53 50z" />
    <glyph glyph-name="macron" unicode="&#xaf;" horiz-adv-x="500" 
d="M408 623h-317v88h317v-88z" />
    <glyph glyph-name="degree" unicode="&#xb0;" horiz-adv-x="478" 
d="M423 542c0 -102 -82 -184 -184 -184s-184 82 -184 184s82 185 184 185s184 -83 184 -185zM318 542c0 45 -36 80 -80 80s-78 -35 -78 -80s35 -80 79 -80s79 35 79 80z" />
    <glyph glyph-name="plusminus" unicode="&#xb1;" 
d="M493 341h-160v-161h-122v161h-161v121h161v161h122v-161h160v-121zM493 0h-443v122h443v-122z" />
    <glyph glyph-name="twosuperior" unicode="&#xb2;" horiz-adv-x="358" 
d="M315 285h-272v85l156 171c16 17 22 29 22 47c0 26 -15 43 -42 43c-20 0 -42 -9 -42 -44h-94c0 83 61 129 136 129c78 0 136 -48 136 -128c0 -44 -19 -68 -52 -104l-105 -114h157v-85z" />
    <glyph glyph-name="threesuperior" unicode="&#xb3;" horiz-adv-x="368" 
d="M325 412c0 -89 -66 -131 -141 -131c-71 0 -141 38 -141 132h94c0 -32 21 -48 47 -48c28 0 47 18 47 50c0 28 -19 48 -49 48h-13v81h13c31 0 44 22 44 43c0 29 -20 44 -42 44c-23 0 -42 -15 -42 -42h-94c0 79 61 127 136 127c78 0 136 -52 136 -126c0 -47 -22 -70 -45 -84
c25 -16 50 -43 50 -94z" />
    <glyph glyph-name="acute" unicode="&#xb4;" horiz-adv-x="500" 
d="M396 774l-114 -170h-87l64 170h137z" />
    <glyph glyph-name="uni00B5" unicode="&#xb5;" horiz-adv-x="576" 
d="M503 0h-127v48c-34 -36 -82 -54 -130 -54c-19 0 -34 5 -46 14v-199h-130v712h130v-315c0 -71 45 -95 86 -95s87 24 87 95v315h130v-521z" />
    <glyph glyph-name="paragraph" unicode="&#xb6;" horiz-adv-x="668" 
d="M585 -191h-130v779h-100v-779h-130v499c-100 0 -190 90 -190 201c0 131 93 203 231 203h319v-903z" />
    <glyph glyph-name="periodcentered" unicode="&#xb7;" horiz-adv-x="285" 
d="M217 212h-149v148h149v-148z" />
    <glyph glyph-name="cedilla" unicode="&#xb8;" horiz-adv-x="500" 
d="M325 -60l-44 -146h-121l69 146h96z" />
    <glyph glyph-name="onesuperior" unicode="&#xb9;" horiz-adv-x="292" 
d="M223 285h-95v321l-90 -78v106l90 78h95v-427z" />
    <glyph glyph-name="ordmasculine" unicode="&#xba;" horiz-adv-x="462" 
d="M407 504c0 -76 -10 -121 -48 -161c-26 -27 -67 -51 -128 -51s-102 24 -128 51c-38 40 -48 85 -48 161c0 75 10 122 48 162c26 27 67 51 128 51s102 -24 128 -51c38 -40 48 -87 48 -162zM302 504c0 42 -2 80 -23 101c-12 12 -28 18 -48 18s-36 -6 -48 -18
c-21 -21 -23 -59 -23 -101s2 -79 23 -100c12 -12 28 -18 48 -18s36 6 48 18c21 21 23 58 23 100z" />
    <glyph glyph-name="guillemotright" unicode="&#xbb;" horiz-adv-x="628" 
d="M595 275l-250 -248v155l94 93l-94 93v155zM316 275l-249 -248v155l95 93l-95 93v155z" />
    <glyph glyph-name="onequarter" unicode="&#xbc;" horiz-adv-x="836" 
d="M625 712l-337 -712h-102l337 712h102zM796 57h-33v-57h-90v57h-176v89l143 281h103l-144 -281h74v62h90v-62h33v-89zM223 285h-95v321l-90 -78v106l90 78h95v-427z" />
    <glyph glyph-name="onehalf" unicode="&#xbd;" horiz-adv-x="862" 
d="M819 0h-272v85l156 171c16 17 23 29 23 47c0 26 -16 43 -43 43c-20 0 -41 -9 -41 -44h-95c0 83 61 129 136 129c78 0 136 -48 136 -128c0 -44 -19 -68 -52 -104l-105 -114h157v-85zM620 712l-337 -712h-101l337 712h101zM223 285h-95v321l-90 -78v106l90 78h95v-427z" />
    <glyph glyph-name="threequarters" unicode="&#xbe;" horiz-adv-x="865" 
d="M657 712l-337 -712h-102l337 712h102zM325 412c0 -89 -66 -131 -141 -131c-71 0 -141 38 -141 132h94c0 -32 21 -48 47 -48c28 0 47 18 47 50c0 28 -19 48 -49 48h-13v81h13c31 0 44 22 44 43c0 29 -20 44 -42 44c-23 0 -42 -15 -42 -42h-94c0 79 61 127 136 127
c78 0 136 -52 136 -126c0 -47 -22 -70 -45 -84c25 -16 50 -43 50 -94zM825 57h-33v-57h-90v57h-176v89l143 281h103l-144 -281h74v62h90v-62h33v-89z" />
    <glyph glyph-name="questiondown" unicode="&#xbf;" horiz-adv-x="523" 
d="M457 4c0 -124 -95 -201 -211 -201c-113 0 -210 73 -210 200c0 50 21 88 49 125l74 99c10 13 18 34 18 51v20h130v-30c0 -43 -12 -70 -38 -104l-74 -95c-16 -21 -29 -45 -29 -67c0 -47 30 -82 80 -82c53 0 81 38 81 84h130zM311 388h-138v133h138v-133z" />
    <glyph glyph-name="Agrave" unicode="&#xc0;" horiz-adv-x="638" 
d="M633 0h-145l-42 126h-253l-43 -126h-145l259 712h109zM409 243l-87 259l-90 -259h177zM372 781h-87l-114 170h137z" />
    <glyph glyph-name="Aacute" unicode="&#xc1;" horiz-adv-x="638" 
d="M633 0h-145l-42 126h-253l-43 -126h-145l259 712h109zM409 243l-87 259l-90 -259h177zM463 951l-114 -170h-87l64 170h137z" />
    <glyph glyph-name="Acircumflex" unicode="&#xc2;" horiz-adv-x="638" 
d="M633 0h-145l-42 126h-253l-43 -126h-145l259 712h109zM409 243l-87 259l-90 -259h177zM501 781h-101l-83 91l-83 -91h-101l132 169h104z" />
    <glyph glyph-name="Atilde" unicode="&#xc3;" horiz-adv-x="638" 
d="M633 0h-145l-42 126h-253l-43 -126h-145l259 712h109zM409 243l-87 259l-90 -259h177zM497 849c-44 -44 -75 -59 -113 -59c-30 0 -50 6 -78 23c-19 11 -36 18 -56 18c-17 0 -32 -3 -58 -29l-56 57c43 44 73 59 112 59c29 0 49 -6 77 -23c20 -12 35 -18 55 -18
c17 0 32 2 59 29z" />
    <glyph glyph-name="Adieresis" unicode="&#xc4;" horiz-adv-x="638" 
d="M633 0h-145l-42 126h-253l-43 -126h-145l259 712h109zM409 243l-87 259l-90 -259h177zM485 783h-111v125h111v-125zM264 783h-111v125h111v-125z" />
    <glyph glyph-name="Aring" unicode="&#xc5;" horiz-adv-x="638" 
d="M633 0h-145l-42 126h-253l-43 -126h-145l259 712h109zM409 243l-87 259l-90 -259h177zM448 884c0 -72 -59 -131 -131 -131s-131 59 -131 131s59 131 131 131s131 -58 131 -131zM375 884c0 32 -26 58 -58 58s-58 -26 -58 -58s26 -59 58 -59s58 27 58 59z" />
    <glyph glyph-name="AE" unicode="&#xc6;" horiz-adv-x="979" 
d="M926 0h-468v156h-225l-81 -156h-149l372 712h551v-124h-330v-168h282v-124h-282v-172h330v-124zM458 273v315l-165 -315h165z" />
    <glyph glyph-name="Ccedilla" unicode="&#xc7;" horiz-adv-x="620" 
d="M583 219c-24 -145 -126 -225 -262 -225c-76 0 -140 26 -192 78c-31 31 -50 67 -58 107s-12 99 -12 177s4 137 12 177c8 41 27 76 58 107c52 52 116 78 192 78c137 0 238 -80 262 -225h-141c-15 61 -53 101 -120 101c-38 0 -68 -12 -89 -37c-29 -31 -35 -63 -35 -201
s6 -170 35 -201c21 -25 51 -37 89 -37c67 0 105 40 120 101h141zM379 -60l-44 -146h-121l69 146h96z" />
    <glyph glyph-name="Egrave" unicode="&#xc8;" horiz-adv-x="605" 
d="M552 0h-469v712h469v-124h-330v-167h281v-124h-281v-173h330v-124zM365 781h-87l-114 170h137z" />
    <glyph glyph-name="Eacute" unicode="&#xc9;" horiz-adv-x="605" 
d="M552 0h-469v712h469v-124h-330v-167h281v-124h-281v-173h330v-124zM455 951l-114 -170h-87l64 170h137z" />
    <glyph glyph-name="Ecircumflex" unicode="&#xca;" horiz-adv-x="605" 
d="M552 0h-469v712h469v-124h-330v-167h281v-124h-281v-173h330v-124zM494 781h-101l-83 91l-83 -91h-101l132 169h104z" />
    <glyph glyph-name="Edieresis" unicode="&#xcb;" horiz-adv-x="605" 
d="M552 0h-469v712h469v-124h-330v-167h281v-124h-281v-173h330v-124zM476 783h-111v125h111v-125zM255 783h-111v125h111v-125z" />
    <glyph glyph-name="Igrave" unicode="&#xcc;" horiz-adv-x="305" 
d="M222 0h-139v712h139v-712zM222 781h-87l-114 170h137z" />
    <glyph glyph-name="Iacute" unicode="&#xcd;" horiz-adv-x="305" 
d="M222 0h-139v712h139v-712zM284 951l-114 -170h-87l64 170h137z" />
    <glyph glyph-name="Icircumflex" unicode="&#xce;" horiz-adv-x="305" 
d="M222 0h-139v712h139v-712zM336 781h-101l-83 91l-83 -91h-101l132 169h104z" />
    <glyph glyph-name="Idieresis" unicode="&#xcf;" horiz-adv-x="305" 
d="M222 0h-139v712h139v-712zM319 783h-111v125h111v-125zM98 783h-111v125h111v-125z" />
    <glyph glyph-name="Eth" unicode="&#xd0;" horiz-adv-x="682" 
d="M623 356c0 -131 3 -200 -63 -273c-47 -52 -116 -83 -199 -83h-255v307h-69v106h69v299h257c79 0 148 -28 197 -84c67 -76 63 -145 63 -272zM484 354c0 125 -4 153 -25 183c-24 34 -57 52 -109 52h-105v-176h116v-106h-116v-184h105c53 0 89 20 111 53c20 29 23 51 23 178
z" />
    <glyph glyph-name="Ntilde" unicode="&#xd1;" horiz-adv-x="711" 
d="M628 0h-124l-282 437v-437h-139v712h124l282 -436v436h139v-712zM536 849c-44 -44 -75 -59 -113 -59c-30 0 -50 6 -78 23c-19 11 -36 18 -56 18c-17 0 -32 -3 -58 -29l-56 57c43 44 73 59 112 59c29 0 49 -6 77 -23c20 -12 35 -18 55 -18c17 0 32 2 59 29z" />
    <glyph glyph-name="Ograve" unicode="&#xd2;" horiz-adv-x="644" 
d="M585 356c0 -123 1 -212 -71 -284c-50 -50 -111 -78 -192 -78s-143 28 -193 78c-72 72 -70 161 -70 284s-2 212 70 284c50 50 112 78 193 78s142 -28 192 -78c72 -72 71 -161 71 -284zM446 356c0 137 -8 170 -35 200c-20 23 -51 38 -89 38s-70 -15 -90 -38
c-27 -30 -34 -63 -34 -200s7 -170 34 -200c20 -23 52 -38 90 -38s69 15 89 38c27 30 35 63 35 200zM377 781h-87l-114 170h137z" />
    <glyph glyph-name="Oacute" unicode="&#xd3;" horiz-adv-x="644" 
d="M585 356c0 -123 1 -212 -71 -284c-50 -50 -111 -78 -192 -78s-143 28 -193 78c-72 72 -70 161 -70 284s-2 212 70 284c50 50 112 78 193 78s142 -28 192 -78c72 -72 71 -161 71 -284zM446 356c0 137 -8 170 -35 200c-20 23 -51 38 -89 38s-70 -15 -90 -38
c-27 -30 -34 -63 -34 -200s7 -170 34 -200c20 -23 52 -38 90 -38s69 15 89 38c27 30 35 63 35 200zM468 951l-114 -170h-87l64 170h137z" />
    <glyph glyph-name="Ocircumflex" unicode="&#xd4;" horiz-adv-x="644" 
d="M585 356c0 -123 1 -212 -71 -284c-50 -50 -111 -78 -192 -78s-143 28 -193 78c-72 72 -70 161 -70 284s-2 212 70 284c50 50 112 78 193 78s142 -28 192 -78c72 -72 71 -161 71 -284zM446 356c0 137 -8 170 -35 200c-20 23 -51 38 -89 38s-70 -15 -90 -38
c-27 -30 -34 -63 -34 -200s7 -170 34 -200c20 -23 52 -38 90 -38s69 15 89 38c27 30 35 63 35 200zM506 781h-101l-83 91l-83 -91h-101l132 169h104z" />
    <glyph glyph-name="Otilde" unicode="&#xd5;" horiz-adv-x="644" 
d="M585 356c0 -123 1 -212 -71 -284c-50 -50 -111 -78 -192 -78s-143 28 -193 78c-72 72 -70 161 -70 284s-2 212 70 284c50 50 112 78 193 78s142 -28 192 -78c72 -72 71 -161 71 -284zM446 356c0 137 -8 170 -35 200c-20 23 -51 38 -89 38s-70 -15 -90 -38
c-27 -30 -34 -63 -34 -200s7 -170 34 -200c20 -23 52 -38 90 -38s69 15 89 38c27 30 35 63 35 200zM502 849c-44 -44 -75 -59 -113 -59c-30 0 -50 6 -78 23c-19 11 -36 18 -56 18c-17 0 -32 -3 -58 -29l-56 57c43 44 73 59 112 59c29 0 49 -6 77 -23c20 -12 35 -18 55 -18
c17 0 32 2 59 29z" />
    <glyph glyph-name="Odieresis" unicode="&#xd6;" horiz-adv-x="644" 
d="M585 356c0 -123 1 -212 -71 -284c-50 -50 -111 -78 -192 -78s-143 28 -193 78c-72 72 -70 161 -70 284s-2 212 70 284c50 50 112 78 193 78s142 -28 192 -78c72 -72 71 -161 71 -284zM446 356c0 137 -8 170 -35 200c-20 23 -51 38 -89 38s-70 -15 -90 -38
c-27 -30 -34 -63 -34 -200s7 -170 34 -200c20 -23 52 -38 90 -38s69 15 89 38c27 30 35 63 35 200zM488 783h-111v125h111v-125zM267 783h-111v125h111v-125z" />
    <glyph glyph-name="multiply" unicode="&#xd7;" 
d="M494 145l-82 -82l-141 141l-140 -141l-82 82l141 141l-141 141l82 82l140 -141l141 141l82 -82l-141 -141z" />
    <glyph glyph-name="Oslash" unicode="&#xd8;" horiz-adv-x="652" 
d="M585 356c0 -123 1 -212 -71 -284c-50 -50 -111 -78 -192 -78c-43 0 -80 7 -113 22l-29 -60h-99l53 111l-5 5c-72 72 -70 161 -70 284s-2 212 70 284c50 50 112 78 193 78c43 0 80 -7 113 -22l29 60h98l-53 -111l5 -5c72 -72 71 -161 71 -284zM446 356
c0 78 -3 122 -10 151l-178 -372c18 -11 40 -17 64 -17c38 0 69 15 89 38c27 30 35 63 35 200zM385 578c-18 11 -39 16 -63 16c-38 0 -70 -15 -90 -38c-27 -30 -34 -63 -34 -200c0 -78 2 -122 9 -151z" />
    <glyph glyph-name="Ugrave" unicode="&#xd9;" horiz-adv-x="668" 
d="M596 244c0 -151 -116 -250 -262 -250s-262 99 -262 250v468h139v-463c0 -82 48 -131 123 -131s124 49 124 131v463h138v-468zM389 781h-87l-114 170h137z" />
    <glyph glyph-name="Uacute" unicode="&#xda;" horiz-adv-x="668" 
d="M596 244c0 -151 -116 -250 -262 -250s-262 99 -262 250v468h139v-463c0 -82 48 -131 123 -131s124 49 124 131v463h138v-468zM480 951l-114 -170h-87l64 170h137z" />
    <glyph glyph-name="Ucircumflex" unicode="&#xdb;" horiz-adv-x="668" 
d="M596 244c0 -151 -116 -250 -262 -250s-262 99 -262 250v468h139v-463c0 -82 48 -131 123 -131s124 49 124 131v463h138v-468zM518 781h-101l-83 91l-83 -91h-101l132 169h104z" />
    <glyph glyph-name="Udieresis" unicode="&#xdc;" horiz-adv-x="668" 
d="M596 244c0 -151 -116 -250 -262 -250s-262 99 -262 250v468h139v-463c0 -82 48 -131 123 -131s124 49 124 131v463h138v-468zM500 783h-111v125h111v-125zM279 783h-111v125h111v-125z" />
    <glyph glyph-name="Yacute" unicode="&#xdd;" horiz-adv-x="572" 
d="M569 712l-214 -420v-292h-138v292l-214 420h151l133 -287l131 287h151zM431 951l-114 -170h-87l64 170h137z" />
    <glyph glyph-name="Thorn" unicode="&#xde;" horiz-adv-x="633" 
d="M594 360c0 -121 -88 -222 -235 -222h-137v-138h-139v712h139v-131h137c147 0 235 -100 235 -221zM455 360c0 58 -40 97 -103 97h-130v-195h130c63 0 103 40 103 98z" />
    <glyph glyph-name="germandbls" unicode="&#xdf;" horiz-adv-x="574" 
d="M516 161c0 -51 -13 -92 -41 -119c-28 -28 -68 -42 -126 -42h-52v110h26c20 0 34 5 45 15s17 26 17 47v144c0 21 -5 35 -15 45s-26 16 -45 16h-28v102h28c32 0 60 18 60 60c0 18 -7 34 -19 45c-15 14 -39 21 -70 21c-70 0 -93 -35 -93 -94v-511h-130v521
c0 139 96 197 225 197c126 0 217 -54 217 -175c0 -61 -30 -94 -61 -113c37 -19 62 -46 62 -109v-160z" />
    <glyph glyph-name="agrave" unicode="&#xe0;" horiz-adv-x="534" 
d="M467 0h-127v45c-35 -35 -68 -50 -128 -50c-59 0 -102 15 -133 46c-28 29 -43 71 -43 117c0 83 57 151 178 151h123v26c0 57 -28 82 -97 82c-50 0 -73 -12 -100 -43l-83 81c51 56 101 72 188 72c146 0 222 -62 222 -184v-343zM337 192v28h-103c-47 0 -73 -22 -73 -59
c0 -36 24 -60 75 -60c36 0 59 3 82 25c14 13 19 34 19 66zM316 604h-87l-114 170h137z" />
    <glyph glyph-name="aacute" unicode="&#xe1;" horiz-adv-x="534" 
d="M467 0h-127v45c-35 -35 -68 -50 -128 -50c-59 0 -102 15 -133 46c-28 29 -43 71 -43 117c0 83 57 151 178 151h123v26c0 57 -28 82 -97 82c-50 0 -73 -12 -100 -43l-83 81c51 56 101 72 188 72c146 0 222 -62 222 -184v-343zM337 192v28h-103c-47 0 -73 -22 -73 -59
c0 -36 24 -60 75 -60c36 0 59 3 82 25c14 13 19 34 19 66zM407 774l-114 -170h-87l64 170h137z" />
    <glyph glyph-name="acircumflex" unicode="&#xe2;" horiz-adv-x="534" 
d="M467 0h-127v45c-35 -35 -68 -50 -128 -50c-59 0 -102 15 -133 46c-28 29 -43 71 -43 117c0 83 57 151 178 151h123v26c0 57 -28 82 -97 82c-50 0 -73 -12 -100 -43l-83 81c51 56 101 72 188 72c146 0 222 -62 222 -184v-343zM337 192v28h-103c-47 0 -73 -22 -73 -59
c0 -36 24 -60 75 -60c36 0 59 3 82 25c14 13 19 34 19 66zM445 604h-101l-83 91l-83 -91h-101l132 169h104z" />
    <glyph glyph-name="atilde" unicode="&#xe3;" horiz-adv-x="534" 
d="M467 0h-127v45c-35 -35 -68 -50 -128 -50c-59 0 -102 15 -133 46c-28 29 -43 71 -43 117c0 83 57 151 178 151h123v26c0 57 -28 82 -97 82c-50 0 -73 -12 -100 -43l-83 81c51 56 101 72 188 72c146 0 222 -62 222 -184v-343zM337 192v28h-103c-47 0 -73 -22 -73 -59
c0 -36 24 -60 75 -60c36 0 59 3 82 25c14 13 19 34 19 66zM436 671c-44 -44 -74 -58 -113 -58c-29 0 -49 6 -77 22c-19 11 -36 18 -56 18c-17 0 -32 -2 -58 -28l-57 57c44 44 74 58 112 58c30 0 49 -5 78 -22c19 -12 35 -19 55 -19c17 0 32 3 58 29z" />
    <glyph glyph-name="adieresis" unicode="&#xe4;" horiz-adv-x="534" 
d="M467 0h-127v45c-35 -35 -68 -50 -128 -50c-59 0 -102 15 -133 46c-28 29 -43 71 -43 117c0 83 57 151 178 151h123v26c0 57 -28 82 -97 82c-50 0 -73 -12 -100 -43l-83 81c51 56 101 72 188 72c146 0 222 -62 222 -184v-343zM337 192v28h-103c-47 0 -73 -22 -73 -59
c0 -36 24 -60 75 -60c36 0 59 3 82 25c14 13 19 34 19 66zM428 606h-111v125h111v-125zM207 606h-111v125h111v-125z" />
    <glyph glyph-name="aring" unicode="&#xe5;" horiz-adv-x="534" 
d="M467 0h-127v45c-35 -35 -68 -50 -128 -50c-59 0 -102 15 -133 46c-28 29 -43 71 -43 117c0 83 57 151 178 151h123v26c0 57 -28 82 -97 82c-50 0 -73 -12 -100 -43l-83 81c51 56 101 72 188 72c146 0 222 -62 222 -184v-343zM337 192v28h-103c-47 0 -73 -22 -73 -59
c0 -36 24 -60 75 -60c36 0 59 3 82 25c14 13 19 34 19 66zM392 715c0 -72 -59 -131 -131 -131s-131 59 -131 131s59 131 131 131s131 -58 131 -131zM319 715c0 32 -26 58 -58 58s-58 -26 -58 -58s26 -59 58 -59s58 27 58 59z" />
    <glyph glyph-name="ae" unicode="&#xe6;" horiz-adv-x="838" 
d="M791 220h-326c0 -67 41 -116 114 -116c57 0 85 16 118 49l79 -77c-53 -53 -104 -82 -198 -82c-70 0 -137 20 -183 73c-57 -62 -110 -73 -183 -73c-59 0 -102 16 -133 47c-28 29 -43 71 -43 117c0 83 57 151 178 151h123v26c0 57 -28 82 -97 82c-50 0 -73 -12 -100 -43
l-83 81c51 56 101 72 188 72c80 0 136 -19 171 -57c37 38 88 57 148 57c145 0 227 -106 227 -249v-58zM337 192v28h-103c-47 0 -73 -22 -73 -59c0 -36 24 -60 75 -60c36 0 59 3 82 25c14 13 19 34 19 66zM663 309c-1 23 -4 37 -12 56c-14 31 -43 54 -87 54s-73 -23 -87 -54
c-8 -19 -11 -33 -12 -56h198z" />
    <glyph glyph-name="ccedilla" unicode="&#xe7;" horiz-adv-x="480" 
d="M452 65c-46 -48 -100 -71 -172 -71c-104 0 -233 56 -233 267s129 266 233 266c72 0 126 -22 172 -70l-88 -88c-27 29 -50 41 -84 41c-31 0 -55 -11 -74 -34c-20 -25 -29 -60 -29 -115s9 -91 29 -116c19 -23 43 -34 74 -34c34 0 57 12 84 41zM325 -60l-44 -146h-121
l69 146h96z" />
    <glyph glyph-name="egrave" unicode="&#xe8;" horiz-adv-x="548" 
d="M501 220h-326c0 -67 41 -116 114 -116c57 0 85 16 118 49l79 -77c-53 -53 -104 -82 -198 -82c-123 0 -241 56 -241 267c0 170 92 266 227 266c145 0 227 -106 227 -249v-58zM373 309c-1 23 -4 37 -12 56c-14 31 -43 54 -87 54s-73 -23 -87 -54c-8 -19 -11 -33 -12 -56
h198zM332 604h-87l-114 170h137z" />
    <glyph glyph-name="eacute" unicode="&#xe9;" horiz-adv-x="548" 
d="M501 220h-326c0 -67 41 -116 114 -116c57 0 85 16 118 49l79 -77c-53 -53 -104 -82 -198 -82c-123 0 -241 56 -241 267c0 170 92 266 227 266c145 0 227 -106 227 -249v-58zM373 309c-1 23 -4 37 -12 56c-14 31 -43 54 -87 54s-73 -23 -87 -54c-8 -19 -11 -33 -12 -56
h198zM423 774l-114 -170h-87l64 170h137z" />
    <glyph glyph-name="ecircumflex" unicode="&#xea;" horiz-adv-x="548" 
d="M501 220h-326c0 -67 41 -116 114 -116c57 0 85 16 118 49l79 -77c-53 -53 -104 -82 -198 -82c-123 0 -241 56 -241 267c0 170 92 266 227 266c145 0 227 -106 227 -249v-58zM373 309c-1 23 -4 37 -12 56c-14 31 -43 54 -87 54s-73 -23 -87 -54c-8 -19 -11 -33 -12 -56
h198zM461 604h-101l-83 91l-83 -91h-101l132 169h104z" />
    <glyph glyph-name="edieresis" unicode="&#xeb;" horiz-adv-x="548" 
d="M501 220h-326c0 -67 41 -116 114 -116c57 0 85 16 118 49l79 -77c-53 -53 -104 -82 -198 -82c-123 0 -241 56 -241 267c0 170 92 266 227 266c145 0 227 -106 227 -249v-58zM373 309c-1 23 -4 37 -12 56c-14 31 -43 54 -87 54s-73 -23 -87 -54c-8 -19 -11 -33 -12 -56
h198zM443 606h-111v125h111v-125zM222 606h-111v125h111v-125z" />
    <glyph glyph-name="igrave" unicode="&#xec;" horiz-adv-x="275" 
d="M203 0h-130v521h130v-521zM202 604h-87l-114 170h137z" />
    <glyph glyph-name="iacute" unicode="&#xed;" horiz-adv-x="275" 
d="M203 0h-130v521h130v-521zM273 774l-114 -170h-87l64 170h137z" />
    <glyph glyph-name="icircumflex" unicode="&#xee;" horiz-adv-x="275" 
d="M203 0h-130v521h130v-521zM321 604h-101l-83 91l-83 -91h-101l132 169h104z" />
    <glyph glyph-name="idieresis" unicode="&#xef;" horiz-adv-x="275" 
d="M203 0h-130v521h130v-521zM304 606h-111v125h111v-125zM83 606h-111v125h111v-125z" />
    <glyph glyph-name="eth" unicode="&#xf0;" 
d="M486 254c0 -92 -12 -150 -58 -198c-32 -33 -82 -62 -157 -62s-125 29 -157 62c-46 48 -58 106 -58 198c0 91 12 149 58 197c21 22 52 39 89 49c24 6 50 10 76 7l-34 62h-114v91h68l-31 60h139l31 -60h92v-91h-46l40 -77c49 -95 62 -140 62 -238zM356 254
c0 51 -2 94 -27 120c-14 14 -34 22 -58 22s-43 -8 -57 -22c-25 -26 -28 -69 -28 -120s3 -95 28 -121c14 -14 33 -22 57 -22s44 8 58 22c25 26 27 70 27 121z" />
    <glyph glyph-name="ntilde" unicode="&#xf1;" horiz-adv-x="573" 
d="M506 0h-130v315c0 71 -45 95 -86 95s-87 -24 -87 -95v-315h-130v521h127v-48c34 36 82 54 130 54c52 0 94 -17 123 -46c42 -42 53 -91 53 -148v-333zM465 671c-44 -44 -74 -58 -113 -58c-29 0 -49 6 -77 22c-19 11 -36 18 -56 18c-17 0 -32 -2 -58 -28l-57 57
c44 44 74 58 112 58c30 0 49 -5 78 -22c19 -12 35 -19 55 -19c17 0 32 3 58 29z" />
    <glyph glyph-name="ograve" unicode="&#xf2;" 
d="M492 261c0 -95 -12 -154 -59 -203c-32 -34 -85 -64 -162 -64s-129 30 -161 64c-47 49 -59 108 -59 203c0 94 12 153 59 202c32 34 84 64 161 64s130 -30 162 -64c47 -49 59 -108 59 -202zM362 261c0 54 -3 99 -30 126c-15 15 -35 23 -61 23s-45 -8 -60 -23
c-27 -27 -30 -72 -30 -126s3 -100 30 -127c15 -15 34 -23 60 -23s46 8 61 23c27 27 30 73 30 127zM323 604h-87l-114 170h137z" />
    <glyph glyph-name="oacute" unicode="&#xf3;" 
d="M492 261c0 -95 -12 -154 -59 -203c-32 -34 -85 -64 -162 -64s-129 30 -161 64c-47 49 -59 108 -59 203c0 94 12 153 59 202c32 34 84 64 161 64s130 -30 162 -64c47 -49 59 -108 59 -202zM362 261c0 54 -3 99 -30 126c-15 15 -35 23 -61 23s-45 -8 -60 -23
c-27 -27 -30 -72 -30 -126s3 -100 30 -127c15 -15 34 -23 60 -23s46 8 61 23c27 27 30 73 30 127zM418 774l-114 -170h-87l64 170h137z" />
    <glyph glyph-name="ocircumflex" unicode="&#xf4;" 
d="M492 261c0 -95 -12 -154 -59 -203c-32 -34 -85 -64 -162 -64s-129 30 -161 64c-47 49 -59 108 -59 203c0 94 12 153 59 202c32 34 84 64 161 64s130 -30 162 -64c47 -49 59 -108 59 -202zM362 261c0 54 -3 99 -30 126c-15 15 -35 23 -61 23s-45 -8 -60 -23
c-27 -27 -30 -72 -30 -126s3 -100 30 -127c15 -15 34 -23 60 -23s46 8 61 23c27 27 30 73 30 127zM456 604h-101l-83 91l-83 -91h-101l132 169h104z" />
    <glyph glyph-name="otilde" unicode="&#xf5;" 
d="M492 261c0 -95 -12 -154 -59 -203c-32 -34 -85 -64 -162 -64s-129 30 -161 64c-47 49 -59 108 -59 203c0 94 12 153 59 202c32 34 84 64 161 64s130 -30 162 -64c47 -49 59 -108 59 -202zM362 261c0 54 -3 99 -30 126c-15 15 -35 23 -61 23s-45 -8 -60 -23
c-27 -27 -30 -72 -30 -126s3 -100 30 -127c15 -15 34 -23 60 -23s46 8 61 23c27 27 30 73 30 127zM447 671c-44 -44 -74 -58 -113 -58c-29 0 -49 6 -77 22c-19 11 -36 18 -56 18c-17 0 -32 -2 -58 -28l-57 57c44 44 74 58 112 58c30 0 49 -5 78 -22c19 -12 35 -19 55 -19
c17 0 32 3 58 29z" />
    <glyph glyph-name="odieresis" unicode="&#xf6;" 
d="M492 261c0 -95 -12 -154 -59 -203c-32 -34 -85 -64 -162 -64s-129 30 -161 64c-47 49 -59 108 -59 203c0 94 12 153 59 202c32 34 84 64 161 64s130 -30 162 -64c47 -49 59 -108 59 -202zM362 261c0 54 -3 99 -30 126c-15 15 -35 23 -61 23s-45 -8 -60 -23
c-27 -27 -30 -72 -30 -126s3 -100 30 -127c15 -15 34 -23 60 -23s46 8 61 23c27 27 30 73 30 127zM438 606h-111v125h111v-125zM217 606h-111v125h111v-125z" />
    <glyph glyph-name="divide" unicode="&#xf7;" 
d="M497 225h-451v121h451v-121zM337 423h-130v130h130v-130zM337 18h-130v130h130v-130z" />
    <glyph glyph-name="oslash" unicode="&#xf8;" 
d="M492 261c0 -95 -12 -154 -59 -203c-32 -34 -85 -64 -162 -64c-42 0 -76 9 -104 23l-36 -61h-79l59 101l-1 1c-48 48 -59 108 -59 203c0 94 12 153 59 202c32 34 84 64 161 64c42 0 77 -8 105 -22l35 60h80l-60 -101l2 -1c61 -30 59 -108 59 -202zM362 261
c0 32 -2 61 -8 85l-131 -222c13 -8 29 -13 48 -13c26 0 46 8 61 23c27 27 30 73 30 127zM320 397c-13 8 -30 13 -49 13c-26 0 -45 -8 -60 -23c-27 -27 -30 -72 -30 -126c0 -32 1 -62 7 -86z" />
    <glyph glyph-name="ugrave" unicode="&#xf9;" horiz-adv-x="573" 
d="M500 0h-127v48c-34 -36 -82 -54 -130 -54c-52 0 -94 17 -123 46c-42 42 -53 91 -53 148v333h130v-315c0 -71 45 -95 86 -95s87 24 87 95v315h130v-521zM338 604h-87l-114 170h137z" />
    <glyph glyph-name="uacute" unicode="&#xfa;" horiz-adv-x="573" 
d="M500 0h-127v48c-34 -36 -82 -54 -130 -54c-52 0 -94 17 -123 46c-42 42 -53 91 -53 148v333h130v-315c0 -71 45 -95 86 -95s87 24 87 95v315h130v-521zM429 774l-114 -170h-87l64 170h137z" />
    <glyph glyph-name="ucircumflex" unicode="&#xfb;" horiz-adv-x="573" 
d="M500 0h-127v48c-34 -36 -82 -54 -130 -54c-52 0 -94 17 -123 46c-42 42 -53 91 -53 148v333h130v-315c0 -71 45 -95 86 -95s87 24 87 95v315h130v-521zM467 604h-101l-83 91l-83 -91h-101l132 169h104z" />
    <glyph glyph-name="udieresis" unicode="&#xfc;" horiz-adv-x="573" 
d="M500 0h-127v48c-34 -36 -82 -54 -130 -54c-52 0 -94 17 -123 46c-42 42 -53 91 -53 148v333h130v-315c0 -71 45 -95 86 -95s87 24 87 95v315h130v-521zM450 606h-111v125h111v-125zM229 606h-111v125h111v-125z" />
    <glyph glyph-name="yacute" unicode="&#xfd;" horiz-adv-x="494" 
d="M490 521l-223 -605c-11 -29 -23 -51 -39 -67c-30 -30 -69 -40 -112 -40h-51v117h30c37 0 52 9 65 47l22 64l-178 484h137l108 -322l104 322h137zM390 774l-114 -170h-87l64 170h137z" />
    <glyph glyph-name="thorn" unicode="&#xfe;" horiz-adv-x="562" 
d="M509 261c0 -78 -1 -168 -53 -220c-29 -29 -76 -47 -127 -47c-53 0 -92 14 -126 52v-237h-130v903h130v-237c34 38 73 52 126 52c51 0 98 -18 127 -47c52 -52 53 -141 53 -219zM379 261c0 85 -10 149 -88 149s-88 -64 -88 -149s10 -150 88 -150s88 65 88 150z" />
    <glyph glyph-name="ydieresis" unicode="&#xff;" horiz-adv-x="494" 
d="M490 521l-223 -605c-11 -29 -23 -51 -39 -67c-30 -30 -69 -40 -112 -40h-51v117h30c37 0 52 9 65 47l22 64l-178 484h137l108 -322l104 322h137zM415 606h-111v125h111v-125zM194 606h-111v125h111v-125z" />
    <glyph glyph-name="Amacron" unicode="&#x100;" horiz-adv-x="638" 
d="M633 0h-145l-42 126h-253l-43 -126h-145l259 712h109zM409 243l-87 259l-90 -259h177zM159 793v88h317v-88h-317z" />
    <glyph glyph-name="amacron" unicode="&#x101;" horiz-adv-x="534" 
d="M467 0h-127v45c-35 -35 -68 -50 -128 -50c-59 0 -102 15 -133 46c-28 29 -43 71 -43 117c0 83 57 151 178 151h123v26c0 57 -28 82 -97 82c-50 0 -73 -12 -100 -43l-83 81c51 56 101 72 188 72c146 0 222 -62 222 -184v-343zM337 192v28h-103c-47 0 -73 -22 -73 -59
c0 -36 24 -60 75 -60c36 0 59 3 82 25c14 13 19 34 19 66zM424 623h-317v88h317v-88z" />
    <glyph glyph-name="Abreve" unicode="&#x102;" horiz-adv-x="638" 
d="M633 0h-145l-42 126h-253l-43 -126h-145l259 712h109zM409 243l-87 259l-90 -259h177zM482 930c-5 -108 -78 -151 -164 -151s-160 43 -164 151h87c5 -43 39 -60 77 -60s72 17 77 60h87z" />
    <glyph glyph-name="abreve" unicode="&#x103;" horiz-adv-x="534" 
d="M467 0h-127v45c-35 -35 -68 -50 -128 -50c-59 0 -102 15 -133 46c-28 29 -43 71 -43 117c0 83 57 151 178 151h123v26c0 57 -28 82 -97 82c-50 0 -73 -12 -100 -43l-83 81c51 56 101 72 188 72c146 0 222 -62 222 -184v-343zM337 192v28h-103c-47 0 -73 -22 -73 -59
c0 -36 24 -60 75 -60c36 0 59 3 82 25c14 13 19 34 19 66zM419 748c-5 -108 -78 -151 -164 -151s-160 43 -164 151h87c5 -43 39 -60 77 -60s72 17 77 60h87z" />
    <glyph glyph-name="Aogonek" unicode="&#x104;" horiz-adv-x="638" 
d="M633 0h-145l-42 126h-253l-43 -126h-145l259 712h109zM409 243l-87 259l-90 -259h177zM584 -60l-44 -146h-121l69 146h96z" />
    <glyph glyph-name="aogonek" unicode="&#x105;" horiz-adv-x="534" 
d="M467 0h-127v45c-35 -35 -68 -50 -128 -50c-59 0 -102 15 -133 46c-28 29 -43 71 -43 117c0 83 57 151 178 151h123v26c0 57 -28 82 -97 82c-50 0 -73 -12 -100 -43l-83 81c51 56 101 72 188 72c146 0 222 -62 222 -184v-343zM337 192v28h-103c-47 0 -73 -22 -73 -59
c0 -36 24 -60 75 -60c36 0 59 3 82 25c14 13 19 34 19 66zM436 -60l-44 -146h-121l69 146h96z" />
    <glyph glyph-name="Cacute" unicode="&#x106;" horiz-adv-x="620" 
d="M583 219c-24 -145 -126 -225 -262 -225c-76 0 -140 26 -192 78c-31 31 -50 67 -58 107s-12 99 -12 177s4 137 12 177c8 41 27 76 58 107c52 52 116 78 192 78c137 0 238 -80 262 -225h-141c-15 61 -53 101 -120 101c-38 0 -68 -12 -89 -37c-29 -31 -35 -63 -35 -201
s6 -170 35 -201c21 -25 51 -37 89 -37c67 0 105 40 120 101h141zM456 951l-114 -170h-87l64 170h137z" />
    <glyph glyph-name="cacute" unicode="&#x107;" horiz-adv-x="480" 
d="M452 65c-46 -48 -100 -71 -172 -71c-104 0 -233 56 -233 267s129 266 233 266c72 0 126 -22 172 -70l-88 -88c-27 29 -50 41 -84 41c-31 0 -55 -11 -74 -34c-20 -25 -29 -60 -29 -115s9 -91 29 -116c19 -23 43 -34 74 -34c34 0 57 12 84 41zM411 774l-114 -170h-87
l64 170h137z" />
    <glyph glyph-name="Ccircumflex" unicode="&#x108;" horiz-adv-x="620" 
d="M583 219c-24 -145 -126 -225 -262 -225c-76 0 -140 26 -192 78c-31 31 -50 67 -58 107s-12 99 -12 177s4 137 12 177c8 41 27 76 58 107c52 52 116 78 192 78c137 0 238 -80 262 -225h-141c-15 61 -53 101 -120 101c-38 0 -68 -12 -89 -37c-29 -31 -35 -63 -35 -201
s6 -170 35 -201c21 -25 51 -37 89 -37c67 0 105 40 120 101h141zM506 781h-101l-83 91l-83 -91h-101l132 169h104z" />
    <glyph glyph-name="ccircumflex" unicode="&#x109;" horiz-adv-x="480" 
d="M452 65c-46 -48 -100 -71 -172 -71c-104 0 -233 56 -233 267s129 266 233 266c72 0 126 -22 172 -70l-88 -88c-27 29 -50 41 -84 41c-31 0 -55 -11 -74 -34c-20 -25 -29 -60 -29 -115s9 -91 29 -116c19 -23 43 -34 74 -34c34 0 57 12 84 41zM464 604h-101l-83 91l-83 -91
h-101l132 169h104z" />
    <glyph glyph-name="Cdotaccent" unicode="&#x10a;" horiz-adv-x="620" 
d="M583 219c-24 -145 -126 -225 -262 -225c-76 0 -140 26 -192 78c-31 31 -50 67 -58 107s-12 99 -12 177s4 137 12 177c8 41 27 76 58 107c52 52 116 78 192 78c137 0 238 -80 262 -225h-141c-15 61 -53 101 -120 101c-38 0 -68 -12 -89 -37c-29 -31 -35 -63 -35 -201
s6 -170 35 -201c21 -25 51 -37 89 -37c67 0 105 40 120 101h141zM261 789v116h115v-116h-115z" />
    <glyph glyph-name="cdotaccent" unicode="&#x10b;" horiz-adv-x="480" 
d="M452 65c-46 -48 -100 -71 -172 -71c-104 0 -233 56 -233 267s129 266 233 266c72 0 126 -22 172 -70l-88 -88c-27 29 -50 41 -84 41c-31 0 -55 -11 -74 -34c-20 -25 -29 -60 -29 -115s9 -91 29 -116c19 -23 43 -34 74 -34c34 0 57 12 84 41zM222 612v115h115v-115h-115z
" />
    <glyph glyph-name="Ccaron" unicode="&#x10c;" horiz-adv-x="620" 
d="M583 219c-24 -145 -126 -225 -262 -225c-76 0 -140 26 -192 78c-31 31 -50 67 -58 107s-12 99 -12 177s4 137 12 177c8 41 27 76 58 107c52 52 116 78 192 78c137 0 238 -80 262 -225h-141c-15 61 -53 101 -120 101c-38 0 -68 -12 -89 -37c-29 -31 -35 -63 -35 -201
s6 -170 35 -201c21 -25 51 -37 89 -37c67 0 105 40 120 101h141zM506 950l-132 -169h-104l-132 169h101l83 -90l83 90h101z" />
    <glyph glyph-name="ccaron" unicode="&#x10d;" horiz-adv-x="480" 
d="M452 65c-46 -48 -100 -71 -172 -71c-104 0 -233 56 -233 267s129 266 233 266c72 0 126 -22 172 -70l-88 -88c-27 29 -50 41 -84 41c-31 0 -55 -11 -74 -34c-20 -25 -29 -60 -29 -115s9 -91 29 -116c19 -23 43 -34 74 -34c34 0 57 12 84 41zM464 773l-132 -169h-104
l-132 169h101l83 -90l83 90h101z" />
    <glyph glyph-name="Dcaron" unicode="&#x10e;" horiz-adv-x="659" 
d="M600 359c0 -107 8 -211 -72 -291c-47 -47 -114 -68 -188 -68h-257v712h257c74 0 141 -21 188 -68c80 -80 72 -178 72 -285zM461 359c0 108 -4 153 -30 185c-24 29 -56 44 -104 44h-105v-464h105c48 0 80 15 104 44c26 32 30 83 30 191zM513 950l-132 -169h-104l-132 169
h101l83 -90l83 90h101z" />
    <glyph glyph-name="dcaron" unicode="&#x10f;" horiz-adv-x="560" 
d="M488 0h-127v49c-36 -40 -74 -55 -129 -55c-51 0 -99 18 -128 47c-52 52 -53 142 -53 220s1 167 53 219c29 29 76 47 127 47c53 0 93 -14 127 -52v237h130v-712zM358 261c0 85 -11 149 -89 149s-88 -64 -88 -149s10 -150 88 -150s89 65 89 150zM698 741l-60 -166h-91
l36 166h115z" />
    <glyph glyph-name="Dcroat" unicode="&#x110;" horiz-adv-x="682" 
d="M623 356c0 -131 3 -200 -63 -273c-47 -52 -116 -83 -199 -83h-255v307h-69v106h69v299h257c79 0 148 -28 197 -84c67 -76 63 -145 63 -272zM484 354c0 125 -4 153 -25 183c-24 34 -57 52 -109 52h-105v-176h116v-106h-116v-184h105c53 0 89 20 111 53c20 29 23 51 23 178
z" />
    <glyph glyph-name="dcroat" unicode="&#x111;" horiz-adv-x="561" 
d="M548 567h-60v-567h-127v49c-36 -40 -74 -55 -129 -55c-51 0 -99 18 -128 47c-52 52 -53 142 -53 220s1 167 53 219c29 29 76 47 127 47c53 0 93 -14 127 -52v92h-89v82h89v63h130v-63h60v-82zM358 261c0 85 -11 149 -89 149s-88 -64 -88 -149s10 -150 88 -150
s89 65 89 150z" />
    <glyph glyph-name="Emacron" unicode="&#x112;" horiz-adv-x="605" 
d="M552 0h-469v712h469v-124h-330v-167h281v-124h-281v-173h330v-124zM148 793v88h317v-88h-317z" />
    <glyph glyph-name="emacron" unicode="&#x113;" horiz-adv-x="548" 
d="M501 220h-326c0 -67 41 -116 114 -116c57 0 85 16 118 49l79 -77c-53 -53 -104 -82 -198 -82c-123 0 -241 56 -241 267c0 170 92 266 227 266c145 0 227 -106 227 -249v-58zM373 309c-1 23 -4 37 -12 56c-14 31 -43 54 -87 54s-73 -23 -87 -54c-8 -19 -11 -33 -12 -56
h198zM431 623h-317v88h317v-88z" />
    <glyph glyph-name="Edotaccent" unicode="&#x116;" horiz-adv-x="605" 
d="M552 0h-469v712h469v-124h-330v-167h281v-124h-281v-173h330v-124zM249 789v116h115v-116h-115z" />
    <glyph glyph-name="edotaccent" unicode="&#x117;" horiz-adv-x="548" 
d="M501 220h-326c0 -67 41 -116 114 -116c57 0 85 16 118 49l79 -77c-53 -53 -104 -82 -198 -82c-123 0 -241 56 -241 267c0 170 92 266 227 266c145 0 227 -106 227 -249v-58zM373 309c-1 23 -4 37 -12 56c-14 31 -43 54 -87 54s-73 -23 -87 -54c-8 -19 -11 -33 -12 -56
h198zM215 612v115h115v-115h-115z" />
    <glyph glyph-name="Eogonek" unicode="&#x118;" horiz-adv-x="605" 
d="M552 0h-469v712h469v-124h-330v-167h281v-124h-281v-173h330v-124zM552 -60l-44 -146h-121l69 146h96z" />
    <glyph glyph-name="eogonek" unicode="&#x119;" horiz-adv-x="548" 
d="M501 220h-326c0 -67 41 -116 114 -116c57 0 85 16 118 49l79 -77c-53 -53 -104 -82 -198 -82c-123 0 -241 56 -241 267c0 170 92 266 227 266c145 0 227 -106 227 -249v-58zM373 309c-1 23 -4 37 -12 56c-14 31 -43 54 -87 54s-73 -23 -87 -54c-8 -19 -11 -33 -12 -56
h198zM407 -60l-44 -146h-121l69 146h96z" />
    <glyph glyph-name="Ecaron" unicode="&#x11a;" horiz-adv-x="605" 
d="M552 0h-469v712h469v-124h-330v-167h281v-124h-281v-173h330v-124zM490 950l-132 -169h-104l-132 169h101l83 -90l83 90h101z" />
    <glyph glyph-name="ecaron" unicode="&#x11b;" horiz-adv-x="548" 
d="M501 220h-326c0 -67 41 -116 114 -116c57 0 85 16 118 49l79 -77c-53 -53 -104 -82 -198 -82c-123 0 -241 56 -241 267c0 170 92 266 227 266c145 0 227 -106 227 -249v-58zM373 309c-1 23 -4 37 -12 56c-14 31 -43 54 -87 54s-73 -23 -87 -54c-8 -19 -11 -33 -12 -56
h198zM458 773l-132 -169h-104l-132 169h101l83 -90l83 90h101z" />
    <glyph glyph-name="Gcircumflex" unicode="&#x11c;" horiz-adv-x="637" 
d="M590 292c0 -104 -19 -165 -68 -217c-55 -56 -121 -81 -201 -81c-76 0 -140 26 -192 78c-31 31 -50 67 -58 107s-12 99 -12 177s4 137 12 177c8 41 27 76 58 107c52 52 116 78 192 78c162 0 249 -104 268 -228h-140c-17 69 -59 104 -128 104c-37 0 -67 -13 -89 -38
c-26 -33 -34 -59 -34 -200c0 -140 6 -168 34 -201c21 -25 51 -37 89 -37c41 0 74 13 99 40c21 24 32 56 32 95v27h-131v116h269v-104zM506 781h-101l-83 91l-83 -91h-101l132 169h104z" />
    <glyph glyph-name="gcircumflex" unicode="&#x11d;" horiz-adv-x="555" 
d="M482 19c0 -125 -89 -216 -229 -216c-80 0 -135 16 -189 68l81 82c29 -28 58 -40 102 -40c78 0 105 55 105 108v53c-34 -38 -73 -52 -124 -52s-95 17 -124 46c-49 49 -53 116 -53 207s4 157 53 206c29 29 74 46 125 46c55 0 91 -15 127 -55v49h126v-502zM352 275
c0 69 -9 135 -86 135s-85 -66 -85 -135s8 -136 85 -136s86 67 86 136zM450 604h-101l-83 91l-83 -91h-101l132 169h104z" />
    <glyph glyph-name="Gbreve" unicode="&#x11e;" horiz-adv-x="637" 
d="M590 292c0 -104 -19 -165 -68 -217c-55 -56 -121 -81 -201 -81c-76 0 -140 26 -192 78c-31 31 -50 67 -58 107s-12 99 -12 177s4 137 12 177c8 41 27 76 58 107c52 52 116 78 192 78c162 0 249 -104 268 -228h-140c-17 69 -59 104 -128 104c-37 0 -67 -13 -89 -38
c-26 -33 -34 -59 -34 -200c0 -140 6 -168 34 -201c21 -25 51 -37 89 -37c41 0 74 13 99 40c21 24 32 56 32 95v27h-131v116h269v-104zM485 930c-5 -108 -78 -151 -164 -151s-160 43 -164 151h87c5 -43 39 -60 77 -60s72 17 77 60h87z" />
    <glyph glyph-name="gbreve" unicode="&#x11f;" horiz-adv-x="555" 
d="M482 19c0 -125 -89 -216 -229 -216c-80 0 -135 16 -189 68l81 82c29 -28 58 -40 102 -40c78 0 105 55 105 108v53c-34 -38 -73 -52 -124 -52s-95 17 -124 46c-49 49 -53 116 -53 207s4 157 53 206c29 29 74 46 125 46c55 0 91 -15 127 -55v49h126v-502zM352 275
c0 69 -9 135 -86 135s-85 -66 -85 -135s8 -136 85 -136s86 67 86 136zM430 748c-5 -108 -78 -151 -164 -151s-160 43 -164 151h87c5 -43 39 -60 77 -60s72 17 77 60h87z" />
    <glyph glyph-name="Gdotaccent" unicode="&#x120;" horiz-adv-x="637" 
d="M590 292c0 -104 -19 -165 -68 -217c-55 -56 -121 -81 -201 -81c-76 0 -140 26 -192 78c-31 31 -50 67 -58 107s-12 99 -12 177s4 137 12 177c8 41 27 76 58 107c52 52 116 78 192 78c162 0 249 -104 268 -228h-140c-17 69 -59 104 -128 104c-37 0 -67 -13 -89 -38
c-26 -33 -34 -59 -34 -200c0 -140 6 -168 34 -201c21 -25 51 -37 89 -37c41 0 74 13 99 40c21 24 32 56 32 95v27h-131v116h269v-104zM263 789v116h115v-116h-115z" />
    <glyph glyph-name="gdotaccent" unicode="&#x121;" horiz-adv-x="555" 
d="M482 19c0 -125 -89 -216 -229 -216c-80 0 -135 16 -189 68l81 82c29 -28 58 -40 102 -40c78 0 105 55 105 108v53c-34 -38 -73 -52 -124 -52s-95 17 -124 46c-49 49 -53 116 -53 207s4 157 53 206c29 29 74 46 125 46c55 0 91 -15 127 -55v49h126v-502zM352 275
c0 69 -9 135 -86 135s-85 -66 -85 -135s8 -136 85 -136s86 67 86 136zM208 612v115h115v-115h-115z" />
    <glyph glyph-name="Gcommaaccent" unicode="&#x122;" horiz-adv-x="637" 
d="M590 292c0 -104 -19 -165 -68 -217c-55 -56 -121 -81 -201 -81c-76 0 -140 26 -192 78c-31 31 -50 67 -58 107s-12 99 -12 177s4 137 12 177c8 41 27 76 58 107c52 52 116 78 192 78c162 0 249 -104 268 -228h-140c-17 69 -59 104 -128 104c-37 0 -67 -13 -89 -38
c-26 -33 -34 -59 -34 -200c0 -140 6 -168 34 -201c21 -25 51 -37 89 -37c41 0 74 13 99 40c21 24 32 56 32 95v27h-131v116h269v-104zM399 -60l-44 -146h-121l69 146h96z" />
    <glyph glyph-name="gcommaaccent" unicode="&#x123;" horiz-adv-x="555" 
d="M482 19c0 -125 -89 -216 -229 -216c-80 0 -135 16 -189 68l81 82c29 -28 58 -40 102 -40c78 0 105 55 105 108v53c-34 -38 -73 -52 -124 -52s-95 17 -124 46c-49 49 -53 116 -53 207s4 157 53 206c29 29 74 46 125 46c55 0 91 -15 127 -55v49h126v-502zM352 275
c0 69 -9 135 -86 135s-85 -66 -85 -135s8 -136 85 -136s86 67 86 136zM423 774l-114 -170h-87l64 170h137z" />
    <glyph glyph-name="Hcircumflex" unicode="&#x124;" horiz-adv-x="685" 
d="M602 0h-139v298h-241v-298h-139v712h139v-291h241v291h139v-712zM527 781h-101l-83 91l-83 -91h-101l132 169h104z" />
    <glyph glyph-name="hcircumflex" unicode="&#x125;" horiz-adv-x="569" 
d="M502 0h-130v318c0 69 -44 92 -85 92s-84 -24 -84 -92v-318h-130v712h130v-239c35 36 79 54 125 54c114 0 174 -80 174 -190v-337zM323 781h-101l-83 91l-83 -91h-101l132 169h104z" />
    <glyph glyph-name="Hbar" unicode="&#x126;" horiz-adv-x="729" 
d="M693 508h-69v-508h-139v298h-241v-298h-139v508h-69v106h69v98h139v-98h241v98h139v-98h69v-106zM485 422v86h-241v-86h241z" />
    <glyph glyph-name="hbar" unicode="&#x127;" horiz-adv-x="569" 
d="M502 0h-130v318c0 69 -44 92 -85 92s-84 -24 -84 -92v-318h-130v567h-51v82h51v63h130v-63h85v-82h-85v-94c35 36 79 54 125 54c114 0 174 -80 174 -190v-337z" />
    <glyph glyph-name="Imacron" unicode="&#x12a;" horiz-adv-x="305" 
d="M222 0h-139v712h139v-712zM-5 793v88h317v-88h-317z" />
    <glyph glyph-name="imacron" unicode="&#x12b;" horiz-adv-x="275" 
d="M203 0h-130v521h130v-521zM296 623h-317v88h317v-88z" />
    <glyph glyph-name="Iogonek" unicode="&#x12e;" horiz-adv-x="305" 
d="M222 0h-139v712h139v-712zM179 -60l-44 -146h-121l69 146h96z" />
    <glyph glyph-name="iogonek" unicode="&#x12f;" horiz-adv-x="275" 
d="M203 0h-130v521h130v-521zM204 610h-133v106h133v-106zM169 -60l-44 -146h-121l69 146h96z" />
    <glyph glyph-name="Idotaccent" unicode="&#x130;" horiz-adv-x="305" 
d="M222 0h-139v712h139v-712zM94 789v116h115v-116h-115z" />
    <glyph glyph-name="dotlessi" unicode="&#x131;" horiz-adv-x="275" 
d="M203 0h-130v521h130v-521z" />
    <glyph glyph-name="Jcircumflex" unicode="&#x134;" horiz-adv-x="511" 
d="M437 234c0 -157 -119 -240 -251 -240c-77 0 -130 20 -183 73l92 91c23 -23 45 -40 91 -40c68 0 112 40 112 122v472h139v-478zM551 781h-101l-83 91l-83 -91h-101l132 169h104z" />
    <glyph glyph-name="jcircumflex" unicode="&#x135;" horiz-adv-x="275" 
d="M203 -46c0 -74 -45 -149 -152 -149h-74v110h50c33 0 46 16 46 47v559h130v-567zM322 604h-101l-83 91l-83 -91h-101l132 169h104z" />
    <glyph glyph-name="Kcommaaccent" unicode="&#x136;" horiz-adv-x="665" 
d="M659 0h-162l-183 324l-92 -110v-214h-139v712h139v-310l251 310h169l-236 -283zM431 -60l-44 -146h-121l69 146h96z" />
    <glyph glyph-name="kcommaaccent" unicode="&#x137;" horiz-adv-x="559" 
d="M547 0h-161l-128 217l-55 -62v-155h-130v712h130v-404l173 213h157l-186 -210zM354 -60l-44 -146h-121l69 146h96z" />
    <glyph glyph-name="Lacute" unicode="&#x139;" horiz-adv-x="575" 
d="M545 0h-462v712h139v-588h323v-124zM372 951l-114 -170h-87l64 170h137z" />
    <glyph glyph-name="lacute" unicode="&#x13a;" horiz-adv-x="325" 
d="M294 0h-74c-107 0 -152 75 -152 149v563h130v-555c0 -31 13 -47 46 -47h50v-110zM309 951l-114 -170h-87l64 170h137z" />
    <glyph glyph-name="Lcommaaccent" unicode="&#x13b;" horiz-adv-x="575" 
d="M545 0h-462v712h139v-588h323v-124zM362 -60l-44 -146h-121l69 146h96z" />
    <glyph glyph-name="lcommaaccent" unicode="&#x13c;" horiz-adv-x="325" 
d="M294 0h-74c-107 0 -152 75 -152 149v563h130v-555c0 -31 13 -47 46 -47h50v-110zM238 -60l-44 -146h-121l69 146h96z" />
    <glyph glyph-name="Lcaron" unicode="&#x13d;" horiz-adv-x="575" 
d="M545 0h-462v712h139v-588h323v-124zM468 713l-60 -166h-91l36 166h115z" />
    <glyph glyph-name="lcaron" unicode="&#x13e;" horiz-adv-x="325" 
d="M294 0h-74c-107 0 -152 75 -152 149v563h130v-555c0 -31 13 -47 46 -47h50v-110zM409 741l-60 -166h-91l36 166h115z" />
    <glyph glyph-name="Lslash" unicode="&#x141;" horiz-adv-x="593" 
d="M563 0h-462v244l-64 -41v116l64 41v352h139v-265l128 81v-115l-128 -81v-208h323v-124z" />
    <glyph glyph-name="lslash" unicode="&#x142;" horiz-adv-x="336" 
d="M309 0h-74c-107 0 -151 75 -151 149v153l-54 -33v109l54 34v300h130v-222l60 37v-109l-60 -38v-223c0 -31 12 -47 45 -47h50v-110z" />
    <glyph glyph-name="Nacute" unicode="&#x143;" horiz-adv-x="711" 
d="M628 0h-124l-282 437v-437h-139v712h124l282 -436v436h139v-712zM501 951l-114 -170h-87l64 170h137z" />
    <glyph glyph-name="nacute" unicode="&#x144;" horiz-adv-x="573" 
d="M506 0h-130v315c0 71 -45 95 -86 95s-87 -24 -87 -95v-315h-130v521h127v-48c34 36 82 54 130 54c52 0 94 -17 123 -46c42 -42 53 -91 53 -148v-333zM429 774l-114 -170h-87l64 170h137z" />
    <glyph glyph-name="Ncommaaccent" unicode="&#x145;" horiz-adv-x="711" 
d="M628 0h-124l-282 437v-437h-139v712h124l282 -436v436h139v-712zM430 -60l-44 -146h-121l69 146h96z" />
    <glyph glyph-name="ncommaaccent" unicode="&#x146;" horiz-adv-x="573" 
d="M506 0h-130v315c0 71 -45 95 -86 95s-87 -24 -87 -95v-315h-130v521h127v-48c34 36 82 54 130 54c52 0 94 -17 123 -46c42 -42 53 -91 53 -148v-333zM361 -60l-44 -146h-121l69 146h96z" />
    <glyph glyph-name="Ncaron" unicode="&#x147;" horiz-adv-x="711" 
d="M628 0h-124l-282 437v-437h-139v712h124l282 -436v436h139v-712zM539 950l-132 -169h-104l-132 169h101l83 -90l83 90h101z" />
    <glyph glyph-name="ncaron" unicode="&#x148;" horiz-adv-x="573" 
d="M506 0h-130v315c0 71 -45 95 -86 95s-87 -24 -87 -95v-315h-130v521h127v-48c34 36 82 54 130 54c52 0 94 -17 123 -46c42 -42 53 -91 53 -148v-333zM470 773l-132 -169h-104l-132 169h101l83 -90l83 90h101z" />
    <glyph glyph-name="Omacron" unicode="&#x14c;" horiz-adv-x="644" 
d="M585 356c0 -123 1 -212 -71 -284c-50 -50 -111 -78 -192 -78s-143 28 -193 78c-72 72 -70 161 -70 284s-2 212 70 284c50 50 112 78 193 78s142 -28 192 -78c72 -72 71 -161 71 -284zM446 356c0 137 -8 170 -35 200c-20 23 -51 38 -89 38s-70 -15 -90 -38
c-27 -30 -34 -63 -34 -200s7 -170 34 -200c20 -23 52 -38 90 -38s69 15 89 38c27 30 35 63 35 200zM162 793v88h317v-88h-317z" />
    <glyph glyph-name="omacron" unicode="&#x14d;" 
d="M492 261c0 -95 -12 -154 -59 -203c-32 -34 -85 -64 -162 -64s-129 30 -161 64c-47 49 -59 108 -59 203c0 94 12 153 59 202c32 34 84 64 161 64s130 -30 162 -64c47 -49 59 -108 59 -202zM362 261c0 54 -3 99 -30 126c-15 15 -35 23 -61 23s-45 -8 -60 -23
c-27 -27 -30 -72 -30 -126s3 -100 30 -127c15 -15 34 -23 60 -23s46 8 61 23c27 27 30 73 30 127zM429 623h-317v88h317v-88z" />
    <glyph glyph-name="Ohungarumlaut" unicode="&#x150;" horiz-adv-x="644" 
d="M585 356c0 -123 1 -212 -71 -284c-50 -50 -111 -78 -192 -78s-143 28 -193 78c-72 72 -70 161 -70 284s-2 212 70 284c50 50 112 78 193 78s142 -28 192 -78c72 -72 71 -161 71 -284zM446 356c0 137 -8 170 -35 200c-20 23 -51 38 -89 38s-70 -15 -90 -38
c-27 -30 -34 -63 -34 -200s7 -170 34 -200c20 -23 52 -38 90 -38s69 15 89 38c27 30 35 63 35 200zM359 951l-113 -170h-88l64 170h137zM561 951l-115 -170h-86l63 170h138z" />
    <glyph glyph-name="ohungarumlaut" unicode="&#x151;" 
d="M492 261c0 -95 -12 -154 -59 -203c-32 -34 -85 -64 -162 -64s-129 30 -161 64c-47 49 -59 108 -59 203c0 94 12 153 59 202c32 34 84 64 161 64s130 -30 162 -64c47 -49 59 -108 59 -202zM362 261c0 54 -3 99 -30 126c-15 15 -35 23 -61 23s-45 -8 -60 -23
c-27 -27 -30 -72 -30 -126s3 -100 30 -127c15 -15 34 -23 60 -23s46 8 61 23c27 27 30 73 30 127zM309 774l-113 -170h-88l64 170h137zM511 774l-115 -170h-86l63 170h138z" />
    <glyph glyph-name="OE" unicode="&#x152;" horiz-adv-x="966" 
d="M912 0h-466v44c-34 -36 -86 -50 -128 -50c-81 0 -139 25 -189 75c-71 71 -70 164 -70 287s-1 216 70 287c50 50 108 75 189 75c44 0 94 -14 128 -50v44h465v-123h-327c0 -29 1 -140 1 -169h278v-122h-278c0 -29 -1 -146 -1 -175h328v-123zM446 356c0 137 -8 170 -35 200
c-20 23 -51 38 -89 38s-70 -15 -90 -38c-27 -30 -34 -63 -34 -200s7 -170 34 -200c20 -23 52 -38 90 -38s69 15 89 38c27 30 35 63 35 200z" />
    <glyph glyph-name="oe" unicode="&#x153;" horiz-adv-x="863" 
d="M816 220h-326c0 -67 41 -116 114 -116c57 0 84 16 117 49l80 -77c-53 -53 -104 -82 -198 -82c-67 0 -131 18 -174 66c-32 -39 -86 -66 -158 -66c-77 0 -129 30 -161 64c-47 49 -59 108 -59 203c0 94 12 153 59 202c32 34 84 64 161 64c74 0 129 -29 161 -69
c37 45 92 69 157 69c145 0 227 -106 227 -249v-58zM362 261c0 54 -3 99 -30 126c-15 15 -35 23 -61 23s-45 -8 -60 -23c-27 -27 -30 -72 -30 -126s3 -100 30 -127c15 -15 34 -23 60 -23s46 8 61 23c27 27 30 73 30 127zM687 309c-1 23 -3 37 -11 56c-14 31 -43 54 -87 54
s-74 -23 -88 -54c-8 -19 -10 -33 -11 -56h197z" />
    <glyph glyph-name="Racute" unicode="&#x154;" horiz-adv-x="654" 
d="M622 0h-161l-139 284h-100v-284h-139v712h279c145 0 231 -99 231 -218c0 -100 -61 -162 -130 -187zM454 494c0 55 -40 94 -101 94h-131v-188h131c61 0 101 39 101 94zM473 951l-114 -170h-87l64 170h137z" />
    <glyph glyph-name="racute" unicode="&#x155;" horiz-adv-x="455" 
d="M454 478l-98 -99c-20 20 -37 31 -69 31c-40 0 -84 -30 -84 -96v-314h-130v521h127v-50c25 30 75 56 131 56c51 0 87 -13 123 -49zM372 774l-114 -170h-87l64 170h137z" />
    <glyph glyph-name="Rcommaaccent" unicode="&#x156;" horiz-adv-x="654" 
d="M622 0h-161l-139 284h-100v-284h-139v712h279c145 0 231 -99 231 -218c0 -100 -61 -162 -130 -187zM454 494c0 55 -40 94 -101 94h-131v-188h131c61 0 101 39 101 94zM402 -60l-44 -146h-121l69 146h96z" />
    <glyph glyph-name="rcommaaccent" unicode="&#x157;" horiz-adv-x="455" 
d="M454 478l-98 -99c-20 20 -37 31 -69 31c-40 0 -84 -30 -84 -96v-314h-130v521h127v-50c25 30 75 56 131 56c51 0 87 -13 123 -49zM222 -60l-44 -146h-121l69 146h96z" />
    <glyph glyph-name="Rcaron" unicode="&#x158;" horiz-adv-x="654" 
d="M622 0h-161l-139 284h-100v-284h-139v712h279c145 0 231 -99 231 -218c0 -100 -61 -162 -130 -187zM454 494c0 55 -40 94 -101 94h-131v-188h131c61 0 101 39 101 94zM511 950l-132 -169h-104l-132 169h101l83 -90l83 90h101z" />
    <glyph glyph-name="rcaron" unicode="&#x159;" horiz-adv-x="455" 
d="M454 478l-98 -99c-20 20 -37 31 -69 31c-40 0 -84 -30 -84 -96v-314h-130v521h127v-50c25 30 75 56 131 56c51 0 87 -13 123 -49zM412 773l-132 -169h-104l-132 169h101l83 -90l83 90h101z" />
    <glyph glyph-name="Sacute" unicode="&#x15a;" horiz-adv-x="591" 
d="M543 210c0 -138 -115 -216 -264 -216c-108 0 -190 23 -260 94l90 90c45 -45 106 -60 172 -60c82 0 126 31 126 88c0 25 -7 46 -22 60c-14 13 -30 20 -63 25l-86 12c-61 9 -106 28 -138 59c-34 34 -51 80 -51 140c0 127 94 216 248 216c98 0 169 -24 230 -83l-88 -87
c-45 43 -99 49 -146 49c-74 0 -110 -41 -110 -90c0 -18 6 -37 21 -51c14 -13 37 -24 66 -28l84 -12c65 -9 106 -27 136 -55c38 -36 55 -88 55 -151zM448 951l-114 -170h-87l64 170h137z" />
    <glyph glyph-name="sacute" unicode="&#x15b;" horiz-adv-x="501" 
d="M465 164c0 -115 -98 -170 -221 -170c-82 0 -156 9 -222 75l85 85c43 -43 99 -49 139 -49c45 0 92 15 92 54c0 26 -14 44 -55 48l-82 8c-94 9 -152 50 -152 146c0 108 95 166 201 166c81 0 149 -14 199 -61l-80 -81c-30 27 -76 35 -121 35c-52 0 -74 -24 -74 -50
c0 -19 8 -41 54 -45l82 -8c103 -10 155 -65 155 -153zM393 774l-114 -170h-87l64 170h137z" />
    <glyph glyph-name="Scircumflex" unicode="&#x15c;" horiz-adv-x="591" 
d="M543 210c0 -138 -115 -216 -264 -216c-108 0 -190 23 -260 94l90 90c45 -45 106 -60 172 -60c82 0 126 31 126 88c0 25 -7 46 -22 60c-14 13 -30 20 -63 25l-86 12c-61 9 -106 28 -138 59c-34 34 -51 80 -51 140c0 127 94 216 248 216c98 0 169 -24 230 -83l-88 -87
c-45 43 -99 49 -146 49c-74 0 -110 -41 -110 -90c0 -18 6 -37 21 -51c14 -13 37 -24 66 -28l84 -12c65 -9 106 -27 136 -55c38 -36 55 -88 55 -151zM480 781h-101l-83 91l-83 -91h-101l132 169h104z" />
    <glyph glyph-name="scircumflex" unicode="&#x15d;" horiz-adv-x="501" 
d="M465 164c0 -115 -98 -170 -221 -170c-82 0 -156 9 -222 75l85 85c43 -43 99 -49 139 -49c45 0 92 15 92 54c0 26 -14 44 -55 48l-82 8c-94 9 -152 50 -152 146c0 108 95 166 201 166c81 0 149 -14 199 -61l-80 -81c-30 27 -76 35 -121 35c-52 0 -74 -24 -74 -50
c0 -19 8 -41 54 -45l82 -8c103 -10 155 -65 155 -153zM446 604h-101l-83 91l-83 -91h-101l132 169h104z" />
    <glyph glyph-name="Scedilla" unicode="&#x15e;" horiz-adv-x="591" 
d="M543 210c0 -138 -115 -216 -264 -216c-108 0 -190 23 -260 94l90 90c45 -45 106 -60 172 -60c82 0 126 31 126 88c0 25 -7 46 -22 60c-14 13 -30 20 -63 25l-86 12c-61 9 -106 28 -138 59c-34 34 -51 80 -51 140c0 127 94 216 248 216c98 0 169 -24 230 -83l-88 -87
c-45 43 -99 49 -146 49c-74 0 -110 -41 -110 -90c0 -18 6 -37 21 -51c14 -13 37 -24 66 -28l84 -12c65 -9 106 -27 136 -55c38 -36 55 -88 55 -151zM370 -60l-44 -146h-121l69 146h96z" />
    <glyph glyph-name="scedilla" unicode="&#x15f;" horiz-adv-x="501" 
d="M465 164c0 -115 -98 -170 -221 -170c-82 0 -156 9 -222 75l85 85c43 -43 99 -49 139 -49c45 0 92 15 92 54c0 26 -14 44 -55 48l-82 8c-94 9 -152 50 -152 146c0 108 95 166 201 166c81 0 149 -14 199 -61l-80 -81c-30 27 -76 35 -121 35c-52 0 -74 -24 -74 -50
c0 -19 8 -41 54 -45l82 -8c103 -10 155 -65 155 -153zM325 -60l-44 -146h-121l69 146h96z" />
    <glyph glyph-name="Scaron" unicode="&#x160;" horiz-adv-x="591" 
d="M543 210c0 -138 -115 -216 -264 -216c-108 0 -190 23 -260 94l90 90c45 -45 106 -60 172 -60c82 0 126 31 126 88c0 25 -7 46 -22 60c-14 13 -30 20 -63 25l-86 12c-61 9 -106 28 -138 59c-34 34 -51 80 -51 140c0 127 94 216 248 216c98 0 169 -24 230 -83l-88 -87
c-45 43 -99 49 -146 49c-74 0 -110 -41 -110 -90c0 -18 6 -37 21 -51c14 -13 37 -24 66 -28l84 -12c65 -9 106 -27 136 -55c38 -36 55 -88 55 -151zM478 950l-132 -169h-104l-132 169h101l83 -90l83 90h101z" />
    <glyph glyph-name="scaron" unicode="&#x161;" horiz-adv-x="501" 
d="M465 164c0 -115 -98 -170 -221 -170c-82 0 -156 9 -222 75l85 85c43 -43 99 -49 139 -49c45 0 92 15 92 54c0 26 -14 44 -55 48l-82 8c-94 9 -152 50 -152 146c0 108 95 166 201 166c81 0 149 -14 199 -61l-80 -81c-30 27 -76 35 -121 35c-52 0 -74 -24 -74 -50
c0 -19 8 -41 54 -45l82 -8c103 -10 155 -65 155 -153zM434 773l-132 -169h-104l-132 169h101l83 -90l83 90h101z" />
    <glyph glyph-name="Tcommaaccent" unicode="&#x162;" horiz-adv-x="571" 
d="M541 588h-186v-588h-139v588h-186v124h511v-124zM360 -60l-44 -146h-121l69 146h96z" />
    <glyph glyph-name="tcommaaccent" unicode="&#x163;" horiz-adv-x="352" 
d="M307 0h-71c-106 0 -151 75 -151 149v258h-55v99h55v154h130v-154h92v-99h-92v-250c0 -30 14 -47 45 -47h47v-110zM251 -60l-44 -146h-121l69 146h96z" />
    <glyph glyph-name="Tcaron" unicode="&#x164;" horiz-adv-x="571" 
d="M541 588h-186v-588h-139v588h-186v124h511v-124zM461 950l-132 -169h-104l-132 169h101l83 -90l83 90h101z" />
    <glyph glyph-name="tcaron" unicode="&#x165;" horiz-adv-x="352" 
d="M307 0h-71c-106 0 -151 75 -151 149v258h-55v99h55v154h130v-154h92v-99h-92v-250c0 -30 14 -47 45 -47h47v-110zM415 741l-60 -166h-91l36 166h115z" />
    <glyph glyph-name="Umacron" unicode="&#x16a;" horiz-adv-x="668" 
d="M596 244c0 -151 -116 -250 -262 -250s-262 99 -262 250v468h139v-463c0 -82 48 -131 123 -131s124 49 124 131v463h138v-468zM175 793v88h317v-88h-317z" />
    <glyph glyph-name="umacron" unicode="&#x16b;" horiz-adv-x="573" 
d="M500 0h-127v48c-34 -36 -82 -54 -130 -54c-52 0 -94 17 -123 46c-42 42 -53 91 -53 148v333h130v-315c0 -71 45 -95 86 -95s87 24 87 95v315h130v-521zM444 623h-317v88h317v-88z" />
    <glyph glyph-name="Ubreve" unicode="&#x16c;" horiz-adv-x="668" 
d="M596 244c0 -151 -116 -250 -262 -250s-262 99 -262 250v468h139v-463c0 -82 48 -131 123 -131s124 49 124 131v463h138v-468zM498 930c-5 -108 -78 -151 -164 -151s-160 43 -164 151h87c5 -43 39 -60 77 -60s72 17 77 60h87z" />
    <glyph glyph-name="ubreve" unicode="&#x16d;" horiz-adv-x="573" 
d="M500 0h-127v48c-34 -36 -82 -54 -130 -54c-52 0 -94 17 -123 46c-42 42 -53 91 -53 148v333h130v-315c0 -71 45 -95 86 -95s87 24 87 95v315h130v-521zM447 748c-5 -108 -78 -151 -164 -151s-160 43 -164 151h87c5 -43 39 -60 77 -60s72 17 77 60h87z" />
    <glyph glyph-name="Uring" unicode="&#x16e;" horiz-adv-x="668" 
d="M596 244c0 -151 -116 -250 -262 -250s-262 99 -262 250v468h139v-463c0 -82 48 -131 123 -131s124 49 124 131v463h138v-468zM465 892c0 -72 -59 -131 -131 -131s-131 59 -131 131s59 131 131 131s131 -58 131 -131zM392 892c0 32 -26 58 -58 58s-58 -26 -58 -58
s26 -59 58 -59s58 27 58 59z" />
    <glyph glyph-name="uring" unicode="&#x16f;" horiz-adv-x="573" 
d="M500 0h-127v48c-34 -36 -82 -54 -130 -54c-52 0 -94 17 -123 46c-42 42 -53 91 -53 148v333h130v-315c0 -71 45 -95 86 -95s87 24 87 95v315h130v-521zM417 715c0 -72 -59 -131 -131 -131s-131 59 -131 131s59 131 131 131s131 -58 131 -131zM344 715c0 32 -26 58 -58 58
s-58 -26 -58 -58s26 -59 58 -59s58 27 58 59z" />
    <glyph glyph-name="Uhungarumlaut" unicode="&#x170;" horiz-adv-x="668" 
d="M596 244c0 -151 -116 -250 -262 -250s-262 99 -262 250v468h139v-463c0 -82 48 -131 123 -131s124 49 124 131v463h138v-468zM364 951l-113 -170h-88l64 170h137zM566 951l-115 -170h-86l63 170h138z" />
    <glyph glyph-name="uhungarumlaut" unicode="&#x171;" horiz-adv-x="573" 
d="M500 0h-127v48c-34 -36 -82 -54 -130 -54c-52 0 -94 17 -123 46c-42 42 -53 91 -53 148v333h130v-315c0 -71 45 -95 86 -95s87 24 87 95v315h130v-521zM316 774l-113 -170h-88l64 170h137zM518 774l-115 -170h-86l63 170h138z" />
    <glyph glyph-name="Uogonek" unicode="&#x172;" horiz-adv-x="668" 
d="M596 244c0 -151 -116 -250 -262 -250s-262 99 -262 250v468h139v-463c0 -82 48 -131 123 -131s124 49 124 131v463h138v-468zM500 -60l-44 -146h-121l69 146h96z" />
    <glyph glyph-name="uogonek" unicode="&#x173;" horiz-adv-x="573" 
d="M500 0h-127v48c-34 -36 -82 -54 -130 -54c-52 0 -94 17 -123 46c-42 42 -53 91 -53 148v333h130v-315c0 -71 45 -95 86 -95s87 24 87 95v315h130v-521zM469 -60l-44 -146h-121l69 146h96z" />
    <glyph glyph-name="Ydieresis" unicode="&#x178;" horiz-adv-x="572" 
d="M569 712l-214 -420v-292h-138v292l-214 420h151l133 -287l131 287h151zM452 783h-111v125h111v-125zM231 783h-111v125h111v-125z" />
    <glyph glyph-name="Zacute" unicode="&#x179;" horiz-adv-x="548" 
d="M508 0h-468v112l304 476h-291v124h455v-110l-305 -478h305v-124zM428 951l-114 -170h-87l64 170h137z" />
    <glyph glyph-name="zacute" unicode="&#x17a;" horiz-adv-x="478" 
d="M434 0h-397v99l231 305h-218v117h384v-99l-234 -305h234v-117zM381 774l-114 -170h-87l64 170h137z" />
    <glyph glyph-name="Zdotaccent" unicode="&#x17b;" horiz-adv-x="548" 
d="M508 0h-468v112l304 476h-291v124h455v-110l-305 -478h305v-124zM215 789v116h115v-116h-115z" />
    <glyph glyph-name="zdotaccent" unicode="&#x17c;" horiz-adv-x="478" 
d="M434 0h-397v99l231 305h-218v117h384v-99l-234 -305h234v-117zM182 612v115h115v-115h-115z" />
    <glyph glyph-name="Zcaron" unicode="&#x17d;" horiz-adv-x="548" 
d="M508 0h-468v112l304 476h-291v124h455v-110l-305 -478h305v-124zM461 950l-132 -169h-104l-132 169h101l83 -90l83 90h101z" />
    <glyph glyph-name="zcaron" unicode="&#x17e;" horiz-adv-x="478" 
d="M434 0h-397v99l231 305h-218v117h384v-99l-234 -305h234v-117zM426 773l-132 -169h-104l-132 169h101l83 -90l83 90h101z" />
    <glyph glyph-name="florin" unicode="&#x192;" horiz-adv-x="427" 
d="M397 610h-69c-31 0 -49 -17 -54 -47l-29 -166h96v-100h-113l-87 -488h-130l87 488h-67v100h84l31 174c13 74 71 150 177 149l74 -1v-109z" />
    <glyph glyph-name="Scommaaccent" unicode="&#x218;" horiz-adv-x="591" 
d="M543 210c0 -138 -115 -216 -264 -216c-108 0 -190 23 -260 94l90 90c45 -45 106 -60 172 -60c82 0 126 31 126 88c0 25 -7 46 -22 60c-14 13 -30 20 -63 25l-86 12c-61 9 -106 28 -138 59c-34 34 -51 80 -51 140c0 127 94 216 248 216c98 0 169 -24 230 -83l-88 -87
c-45 43 -99 49 -146 49c-74 0 -110 -41 -110 -90c0 -18 6 -37 21 -51c14 -13 37 -24 66 -28l84 -12c65 -9 106 -27 136 -55c38 -36 55 -88 55 -151zM370 -60l-44 -146h-121l69 146h96z" />
    <glyph glyph-name="scommaaccent" unicode="&#x219;" horiz-adv-x="501" 
d="M465 164c0 -115 -98 -170 -221 -170c-82 0 -156 9 -222 75l85 85c43 -43 99 -49 139 -49c45 0 92 15 92 54c0 26 -14 44 -55 48l-82 8c-94 9 -152 50 -152 146c0 108 95 166 201 166c81 0 149 -14 199 -61l-80 -81c-30 27 -76 35 -121 35c-52 0 -74 -24 -74 -50
c0 -19 8 -41 54 -45l82 -8c103 -10 155 -65 155 -153zM325 -60l-44 -146h-121l69 146h96z" />
    <glyph glyph-name="uni021A" unicode="&#x21a;" horiz-adv-x="571" 
d="M541 588h-186v-588h-139v588h-186v124h511v-124zM368 -60l-44 -146h-121l69 146h96z" />
    <glyph glyph-name="uni021B" unicode="&#x21b;" horiz-adv-x="352" 
d="M307 0h-71c-106 0 -151 75 -151 149v258h-55v99h55v154h130v-154h92v-99h-92v-250c0 -30 14 -47 45 -47h47v-110zM258 -60l-44 -146h-121l69 146h96z" />
    <glyph glyph-name="dotlessj" unicode="&#x237;" horiz-adv-x="275" 
d="M203 -46c0 -74 -45 -149 -152 -149h-74v110h50c33 0 46 16 46 47v559h130v-567z" />
    <glyph glyph-name="circumflex" unicode="&#x2c6;" horiz-adv-x="500" 
d="M434 604h-101l-83 91l-83 -91h-101l132 169h104z" />
    <glyph glyph-name="caron" unicode="&#x2c7;" horiz-adv-x="500" 
d="M434 773l-132 -169h-104l-132 169h101l83 -90l83 90h101z" />
    <glyph glyph-name="breve" unicode="&#x2d8;" horiz-adv-x="500" 
d="M414 748c-5 -108 -78 -151 -164 -151s-160 43 -164 151h87c5 -43 39 -60 77 -60s72 17 77 60h87z" />
    <glyph glyph-name="dotaccent" unicode="&#x2d9;" horiz-adv-x="500" 
d="M308 612h-116v116h116v-116z" />
    <glyph glyph-name="ring" unicode="&#x2da;" horiz-adv-x="500" 
d="M381 715c0 -72 -59 -131 -131 -131s-131 59 -131 131s59 131 131 131s131 -58 131 -131zM308 715c0 32 -26 58 -58 58s-58 -26 -58 -58s26 -59 58 -59s58 27 58 59z" />
    <glyph glyph-name="ogonek" unicode="&#x2db;" horiz-adv-x="500" 
d="M407 -60l-44 -146h-121l69 146h96z" />
    <glyph glyph-name="tilde" unicode="&#x2dc;" horiz-adv-x="500" 
d="M447 671c-44 -44 -74 -58 -113 -58c-29 0 -49 6 -77 22c-19 11 -36 18 -56 18c-17 0 -32 -2 -58 -28l-57 57c44 44 74 58 112 58c30 0 49 -5 78 -22c19 -12 35 -19 55 -19c17 0 32 3 58 29z" />
    <glyph glyph-name="hungarumlaut" unicode="&#x2dd;" horiz-adv-x="500" 
d="M260 774l-113 -170h-88l64 170h137zM462 774l-115 -170h-86l63 170h138z" />
    <glyph glyph-name="tonos" unicode="&#x384;" horiz-adv-x="360" 
d="M242 622l-116 -49v158h116v-109z" />
    <glyph glyph-name="dieresistonos" unicode="&#x385;" horiz-adv-x="481" 
d="M454 590h-111v125h111v-125zM301 639l-115 -49v158h115v-109zM138 590h-111v125h111v-125z" />
    <glyph glyph-name="Alphatonos" unicode="&#x386;" horiz-adv-x="638" 
d="M633 0h-145l-42 126h-253l-43 -126h-145l259 712h109zM409 243l-87 259l-90 -259h177zM90 603l-116 -49v158h116v-109z" />
    <glyph glyph-name="anoteleia" unicode="&#x387;" horiz-adv-x="285" 
d="M217 212h-149v148h149v-148z" />
    <glyph glyph-name="Epsilontonos" unicode="&#x388;" horiz-adv-x="605" 
d="M552 0h-469v712h469v-124h-330v-167h281v-124h-281v-173h330v-124zM10 603l-116 -49v158h116v-109z" />
    <glyph glyph-name="Etatonos" unicode="&#x389;" horiz-adv-x="685" 
d="M602 0h-139v298h-241v-298h-139v712h139v-291h241v291h139v-712zM10 603l-116 -49v158h116v-109z" />
    <glyph glyph-name="Iotatonos" unicode="&#x38a;" horiz-adv-x="305" 
d="M222 0h-139v712h139v-712zM10 603l-116 -49v158h116v-109z" />
    <glyph glyph-name="Omicrontonos" unicode="&#x38c;" horiz-adv-x="644" 
d="M585 356c0 -123 1 -212 -71 -284c-50 -50 -111 -78 -192 -78s-143 28 -193 78c-72 72 -70 161 -70 284s-2 212 70 284c50 50 112 78 193 78s142 -28 192 -78c72 -72 71 -161 71 -284zM446 356c0 137 -8 170 -35 200c-20 23 -51 38 -89 38s-70 -15 -90 -38
c-27 -30 -34 -63 -34 -200s7 -170 34 -200c20 -23 52 -38 90 -38s69 15 89 38c27 30 35 63 35 200zM30 603l-116 -49v158h116v-109z" />
    <glyph glyph-name="Upsilontonos" unicode="&#x38e;" horiz-adv-x="572" 
d="M569 712l-214 -420v-292h-138v292l-214 420h151l133 -287l131 287h151zM-30 603l-116 -49v158h116v-109z" />
    <glyph glyph-name="Omegatonos" unicode="&#x38f;" horiz-adv-x="644" 
d="M585 0h-219v109c24 11 41 25 54 44c18 27 26 73 26 196c0 137 -9 176 -35 206c-20 23 -51 39 -89 39s-70 -16 -90 -39c-26 -30 -34 -69 -34 -206c0 -123 8 -169 26 -196c13 -19 30 -33 54 -44v-109h-219v123h59c-17 18 -28 36 -36 55c-20 49 -23 112 -23 178
c0 123 -2 212 70 284c50 50 112 78 193 78s142 -28 192 -78c72 -72 71 -161 71 -284c0 -66 -3 -129 -23 -178c-8 -19 -19 -37 -36 -55h59v-123zM30 603l-116 -49v158h116v-109z" />
    <glyph glyph-name="iotadieresistonos" unicode="&#x390;" horiz-adv-x="325" 
d="M294 0h-74c-107 0 -152 75 -152 149v372h130v-364c0 -31 13 -47 46 -47h50v-110zM354 590h-111v125h111v-125zM201 639l-115 -49v158h115v-109zM38 590h-111v125h111v-125z" />
    <glyph glyph-name="Alpha" unicode="&#x391;" horiz-adv-x="638" 
d="M633 0h-145l-42 126h-253l-43 -126h-145l259 712h109zM409 243l-87 259l-90 -259h177z" />
    <glyph glyph-name="Beta" unicode="&#x392;" horiz-adv-x="658" 
d="M599 205c0 -133 -91 -205 -218 -205h-298v712h286c139 0 220 -78 220 -200c0 -79 -52 -130 -88 -147c43 -20 98 -65 98 -160zM450 506c0 49 -33 82 -92 82h-136v-164h136c59 0 92 33 92 82zM460 212c0 48 -30 87 -93 87h-145v-175h145c63 0 93 40 93 88z" />
    <glyph glyph-name="Gamma" unicode="&#x393;" horiz-adv-x="568" 
d="M539 588h-317v-588h-139v712h456v-124z" />
    <glyph glyph-name="Delta" unicode="&#x394;" horiz-adv-x="634" 
d="M631 0h-628l260 712h108zM450 117l-130 385l-134 -385h264z" />
    <glyph glyph-name="Epsilon" unicode="&#x395;" horiz-adv-x="605" 
d="M552 0h-469v712h469v-124h-330v-167h281v-124h-281v-173h330v-124z" />
    <glyph glyph-name="Zeta" unicode="&#x396;" horiz-adv-x="548" 
d="M508 0h-468v112l304 476h-291v124h455v-110l-305 -478h305v-124z" />
    <glyph glyph-name="Eta" unicode="&#x397;" horiz-adv-x="685" 
d="M602 0h-139v298h-241v-298h-139v712h139v-291h241v291h139v-712z" />
    <glyph glyph-name="Theta" unicode="&#x398;" horiz-adv-x="644" 
d="M585 356c0 -123 2 -212 -70 -284c-50 -50 -112 -78 -193 -78s-143 28 -193 78c-72 72 -70 161 -70 284s-2 212 70 284c50 50 112 78 193 78s143 -28 193 -78c72 -72 70 -161 70 -284zM445 419c-3 85 -12 112 -34 137c-19 22 -52 38 -89 38s-71 -16 -90 -38
c-22 -25 -31 -52 -34 -137h247zM445 300h-247c2 -91 12 -117 34 -143c20 -22 53 -39 90 -39s69 17 89 39c22 26 32 52 34 143z" />
    <glyph glyph-name="Iota" unicode="&#x399;" horiz-adv-x="305" 
d="M222 0h-139v712h139v-712z" />
    <glyph glyph-name="Kappa" unicode="&#x39a;" horiz-adv-x="665" 
d="M659 0h-162l-183 324l-92 -110v-214h-139v712h139v-310l251 310h169l-236 -283z" />
    <glyph glyph-name="Lambda" unicode="&#x39b;" horiz-adv-x="611" 
d="M603 0h-145l-149 498l-156 -498h-145l240 712h114z" />
    <glyph glyph-name="Mu" unicode="&#x39c;" horiz-adv-x="811" 
d="M728 0h-139v415l-136 -270h-94l-137 270v-415h-139v712h137l186 -385l185 385h137v-712z" />
    <glyph glyph-name="Nu" unicode="&#x39d;" horiz-adv-x="711" 
d="M628 0h-124l-282 437v-437h-139v712h124l282 -436v436h139v-712z" />
    <glyph glyph-name="Xi" unicode="&#x39e;" horiz-adv-x="597" 
d="M544 0h-491v124h176v173h-128v124h128v167h-176v124h491v-124h-176v-167h128v-124h-128v-173h176v-124z" />
    <glyph glyph-name="Omicron" unicode="&#x39f;" horiz-adv-x="644" 
d="M585 356c0 -123 1 -212 -71 -284c-50 -50 -111 -78 -192 -78s-143 28 -193 78c-72 72 -70 161 -70 284s-2 212 70 284c50 50 112 78 193 78s142 -28 192 -78c72 -72 71 -161 71 -284zM446 356c0 137 -8 170 -35 200c-20 23 -51 38 -89 38s-70 -15 -90 -38
c-27 -30 -34 -63 -34 -200s7 -170 34 -200c20 -23 52 -38 90 -38s69 15 89 38c27 30 35 63 35 200z" />
    <glyph glyph-name="Pi" unicode="&#x3a0;" horiz-adv-x="682" 
d="M599 0h-139v588h-238v-588h-139v712h516v-712z" />
    <glyph glyph-name="Rho" unicode="&#x3a1;" horiz-adv-x="628" 
d="M594 490c0 -121 -88 -222 -235 -222h-137v-268h-139v712h276c147 0 235 -101 235 -222zM455 490c0 58 -40 98 -103 98h-130v-195h130c63 0 103 39 103 97z" />
    <glyph glyph-name="Sigma" unicode="&#x3a3;" horiz-adv-x="547" 
d="M511 588h-287l131 -212l-152 -252h305v-124h-468v111l161 263l-145 232v106h455v-124z" />
    <glyph glyph-name="Tau" unicode="&#x3a4;" horiz-adv-x="571" 
d="M541 588h-186v-588h-139v588h-186v124h511v-124z" />
    <glyph glyph-name="Upsilon" unicode="&#x3a5;" horiz-adv-x="572" 
d="M569 712l-214 -420v-292h-138v292l-214 420h151l133 -287l131 287h151z" />
    <glyph glyph-name="Phi" unicode="&#x3a6;" horiz-adv-x="777" 
d="M729 359c0 -82 -10 -163 -71 -224c-58 -58 -119 -78 -200 -78v-57h-139v57c-81 0 -142 20 -200 78c-61 61 -71 142 -71 224s10 163 71 224c58 58 119 78 200 78v51h139v-51c81 0 142 -20 200 -78c61 -61 71 -142 71 -224zM590 359c0 52 -2 100 -33 137
c-25 29 -58 41 -99 41v-356c41 0 74 11 99 40c31 37 33 86 33 138zM319 181v356c-41 0 -74 -12 -99 -41c-31 -37 -33 -85 -33 -137s2 -101 33 -138c25 -29 58 -40 99 -40z" />
    <glyph glyph-name="Chi" unicode="&#x3a7;" horiz-adv-x="603" 
d="M598 0h-159l-138 248l-137 -248h-159l221 365l-207 347h158l124 -230l125 230h157l-207 -347z" />
    <glyph glyph-name="Psi" unicode="&#x3a8;" horiz-adv-x="745" 
d="M695 363c0 -66 -18 -117 -65 -164c-49 -49 -110 -77 -188 -78v-121h-139v121c-78 1 -139 29 -188 78c-47 47 -65 98 -65 164v349h138v-349c0 -38 11 -60 30 -80c21 -22 53 -37 85 -38v467h139v-467c32 1 64 16 85 38c19 20 30 42 30 80v349h138v-349z" />
    <glyph glyph-name="Omega" unicode="&#x3a9;" horiz-adv-x="644" 
d="M585 0h-219v109c24 11 41 25 54 44c18 27 26 73 26 196c0 137 -9 176 -35 206c-20 23 -51 39 -89 39s-70 -16 -90 -39c-26 -30 -34 -69 -34 -206c0 -123 8 -169 26 -196c13 -19 30 -33 54 -44v-109h-219v123h59c-17 18 -28 36 -36 55c-20 49 -23 112 -23 178
c0 123 -2 212 70 284c50 50 112 78 193 78s142 -28 192 -78c72 -72 71 -161 71 -284c0 -66 -3 -129 -23 -178c-8 -19 -19 -37 -36 -55h59v-123z" />
    <glyph glyph-name="Iotadieresis" unicode="&#x3aa;" horiz-adv-x="305" 
d="M222 0h-139v712h139v-712zM316 783h-111v125h111v-125zM95 783h-111v125h111v-125z" />
    <glyph glyph-name="Upsilondieresis" unicode="&#x3ab;" horiz-adv-x="572" 
d="M569 712l-214 -420v-292h-138v292l-214 420h151l133 -287l131 287h151zM451 783h-111v125h111v-125zM230 783h-111v125h111v-125z" />
    <glyph glyph-name="alphatonos" unicode="&#x3ac;" horiz-adv-x="561" 
d="M488 0h-127v49c-36 -40 -74 -55 -129 -55c-51 0 -99 18 -128 47c-52 52 -53 142 -53 220s1 167 53 219c29 29 76 47 127 47c55 0 94 -15 129 -54v48h128v-521zM358 261c0 84 -10 149 -88 149s-89 -65 -89 -149s11 -150 89 -150s88 66 88 150zM342 622l-116 -49v158h116
v-109z" />
    <glyph glyph-name="epsilontonos" unicode="&#x3ad;" horiz-adv-x="510" 
d="M490 85c-75 -71 -134 -90 -232 -90c-105 0 -213 44 -213 156c0 70 45 104 77 119c-27 13 -63 48 -63 107c0 94 97 150 205 150c80 0 128 -15 200 -72l-73 -88c-43 34 -73 52 -121 52s-82 -22 -82 -56c0 -28 26 -49 65 -49h98v-99h-99c-58 0 -75 -29 -75 -51
c0 -35 40 -59 92 -59c55 0 94 20 137 58zM332 622l-116 -49v158h116v-109z" />
    <glyph glyph-name="etatonos" unicode="&#x3ae;" horiz-adv-x="573" 
d="M506 0h-130v315c0 71 -45 95 -86 95s-87 -24 -87 -95v-315h-130v521h127v-48c34 36 82 54 130 54c52 0 94 -17 123 -46c42 -42 53 -91 53 -148v-333zM352 622l-116 -49v158h116v-109z" />
    <glyph glyph-name="iotatonos" unicode="&#x3af;" horiz-adv-x="325" 
d="M294 0h-74c-107 0 -152 75 -152 149v372h130v-364c0 -31 13 -47 46 -47h50v-110zM194 622l-116 -49v158h116v-109z" />
    <glyph glyph-name="upsilondieresistonos" unicode="&#x3b0;" horiz-adv-x="550" 
d="M492 264c0 -86 -7 -152 -59 -206c-36 -37 -85 -64 -158 -64s-122 27 -158 64c-52 54 -59 120 -59 206v257h131v-282c0 -40 3 -81 29 -104c18 -17 35 -24 57 -24s39 7 57 24c26 23 30 64 30 104v282h130v-257zM486 590h-111v125h111v-125zM333 639l-115 -49v158h115v-109z
M170 590h-111v125h111v-125z" />
    <glyph glyph-name="alpha" unicode="&#x3b1;" horiz-adv-x="561" 
d="M488 0h-127v49c-36 -40 -74 -55 -129 -55c-51 0 -99 18 -128 47c-52 52 -53 142 -53 220s1 167 53 219c29 29 76 47 127 47c55 0 94 -15 129 -54v48h128v-521zM358 261c0 84 -10 149 -88 149s-89 -65 -89 -149s11 -150 89 -150s88 66 88 150z" />
    <glyph glyph-name="beta" unicode="&#x3b2;" horiz-adv-x="579" 
d="M531 218c0 -59 -16 -126 -58 -169c-32 -32 -79 -55 -140 -55c-66 0 -110 29 -134 55v-49h-126v520c0 126 95 195 221 195c123 0 213 -63 213 -180c0 -38 -9 -77 -29 -103c-16 -20 -33 -33 -52 -41c23 -8 46 -21 63 -40c28 -32 42 -74 42 -133zM402 228
c0 55 -20 78 -44 89c-20 9 -40 13 -72 13h-51v103h61c73 0 87 50 87 88c0 26 -10 47 -21 59c-15 16 -37 25 -65 25c-67 0 -93 -40 -93 -99v-295c0 -60 39 -101 93 -101c30 0 51 6 69 21c27 23 36 63 36 97z" />
    <glyph glyph-name="gamma" unicode="&#x3b3;" horiz-adv-x="494" 
d="M490 521l-179 -506v-206h-129v206l-178 506h138l106 -340l104 340h138z" />
    <glyph glyph-name="delta" unicode="&#x3b4;" horiz-adv-x="537" 
d="M486 265c0 -91 -13 -153 -54 -202c-32 -39 -84 -69 -166 -69c-77 0 -128 29 -160 67c-40 47 -55 107 -55 195c0 89 17 154 65 199c26 25 65 43 106 43c11 0 23 0 35 -4l-147 121v97h344v-101h-180l110 -92c80 -67 102 -153 102 -254zM354 256c0 55 -6 102 -33 126
c-12 10 -28 16 -50 16s-38 -6 -51 -15c-32 -23 -39 -71 -39 -127c0 -53 5 -103 36 -128c12 -10 29 -16 51 -16s39 5 51 15c31 24 35 73 35 129z" />
    <glyph glyph-name="epsilon" unicode="&#x3b5;" horiz-adv-x="510" 
d="M490 85c-75 -71 -134 -90 -232 -90c-105 0 -213 44 -213 156c0 70 45 104 77 119c-27 13 -63 48 -63 107c0 94 97 150 205 150c80 0 128 -15 200 -72l-73 -88c-43 34 -73 52 -121 52s-82 -22 -82 -56c0 -28 26 -49 65 -49h98v-99h-99c-58 0 -75 -29 -75 -51
c0 -35 40 -59 92 -59c55 0 94 20 137 58z" />
    <glyph glyph-name="zeta" unicode="&#x3b6;" horiz-adv-x="500" 
d="M472 -19c0 -38 -18 -146 -179 -146v101c34 0 57 8 57 41c0 30 -43 26 -63 26h-30c-141 0 -214 50 -214 158c0 115 93 191 191 243h-158v117h384v-117h-19c-97 -42 -260 -131 -260 -229c0 -45 33 -59 98 -59h29c93 0 164 -35 164 -135z" />
    <glyph glyph-name="eta" unicode="&#x3b7;" horiz-adv-x="573" 
d="M506 0h-130v315c0 71 -45 95 -86 95s-87 -24 -87 -95v-315h-130v521h127v-48c34 36 82 54 130 54c52 0 94 -17 123 -46c42 -42 53 -91 53 -148v-333z" />
    <glyph glyph-name="theta" unicode="&#x3b8;" horiz-adv-x="576" 
d="M516 355c0 -103 4 -219 -67 -296c-38 -42 -89 -66 -160 -66s-122 24 -160 66c-71 78 -69 193 -69 297s-2 218 69 296c38 42 89 66 160 66s122 -24 160 -66c71 -77 67 -194 67 -297zM384 428c-2 66 -8 117 -31 144c-15 17 -36 29 -64 29s-49 -12 -64 -29
c-24 -27 -31 -78 -33 -144h192zM385 316h-193c0 -72 3 -143 33 -176c16 -17 36 -29 64 -29s49 12 64 29c29 33 32 105 32 176z" />
    <glyph glyph-name="iota" unicode="&#x3b9;" horiz-adv-x="325" 
d="M294 0h-74c-107 0 -152 75 -152 149v372h130v-364c0 -31 13 -47 46 -47h50v-110z" />
    <glyph glyph-name="kappa" unicode="&#x3ba;" horiz-adv-x="560" 
d="M548 0h-162l-128 217l-55 -62v-155h-131v521h131v-213l173 213h157l-186 -210z" />
    <glyph glyph-name="lambda" unicode="&#x3bb;" horiz-adv-x="514" 
d="M522 0h-54c-88 0 -127 52 -150 127l-60 193l-113 -320h-137l188 486l-21 74c-9 32 -30 42 -57 42h-32v115h48c44 0 83 -10 113 -41c16 -16 28 -37 38 -66l152 -458c8 -25 24 -42 48 -42h37v-110z" />
    <glyph glyph-name="mu" unicode="&#x3bc;" horiz-adv-x="576" 
d="M503 0h-127v48c-34 -36 -82 -54 -130 -54c-19 0 -34 5 -46 14v-199h-130v712h130v-315c0 -71 45 -95 86 -95s87 24 87 95v315h130v-521z" />
    <glyph glyph-name="nu" unicode="&#x3bd;" horiz-adv-x="494" 
d="M490 521l-192 -521h-102l-192 521h138l106 -321l104 321h138z" />
    <glyph glyph-name="xi" unicode="&#x3be;" horiz-adv-x="509" 
d="M497 628l-72 -84c-39 43 -82 67 -134 67c-58 0 -95 -36 -95 -95c0 -56 36 -86 93 -86h120v-109h-110c-28 0 -121 -11 -121 -109c0 -67 46 -96 103 -96h44c94 0 155 -40 155 -135c0 -38 -18 -146 -179 -146v101c34 0 57 8 57 41c0 23 -19 26 -53 26h-44
c-134 0 -218 68 -218 193c0 95 53 158 122 183c-56 19 -95 73 -95 140c0 125 94 201 217 201c79 0 153 -29 210 -92z" />
    <glyph glyph-name="omicron" unicode="&#x3bf;" 
d="M492 261c0 -95 -12 -154 -59 -203c-32 -34 -85 -64 -162 -64s-129 30 -161 64c-47 49 -59 108 -59 203c0 94 12 153 59 202c32 34 84 64 161 64s130 -30 162 -64c47 -49 59 -108 59 -202zM362 261c0 54 -3 99 -30 126c-15 15 -35 23 -61 23s-45 -8 -60 -23
c-27 -27 -30 -72 -30 -126s3 -100 30 -127c15 -15 34 -23 60 -23s46 8 61 23c27 27 30 73 30 127z" />
    <glyph glyph-name="pi" unicode="&#x3c0;" horiz-adv-x="592" 
d="M515 0h-129v399h-180v-399h-130v521h439v-521z" />
    <glyph glyph-name="rho" unicode="&#x3c1;" horiz-adv-x="536" 
d="M485 259c0 -75 -10 -150 -60 -204c-30 -33 -76 -61 -142 -61c-42 0 -75 22 -102 46v-231h-130v451c0 114 19 157 49 192c25 30 74 75 164 75c80 0 132 -31 163 -64c50 -53 58 -109 58 -204zM355 260c0 59 -4 90 -19 115c-13 20 -38 34 -70 34s-52 -13 -65 -33
c-16 -25 -20 -54 -20 -115c0 -43 1 -82 15 -108c15 -26 32 -40 71 -40c76 0 88 69 88 147z" />
    <glyph glyph-name="sigma1" unicode="&#x3c2;" horiz-adv-x="480" 
d="M452 457l-89 -88c-27 29 -48 41 -82 41c-31 0 -57 -12 -75 -34c-20 -24 -28 -60 -28 -115c0 -85 38 -131 116 -139c89 -10 146 -52 146 -141c0 -38 -18 -146 -179 -146v101c34 0 57 8 57 41c0 26 -30 32 -64 35c-114 9 -207 79 -207 249c0 211 130 266 234 266
c72 0 125 -22 171 -70z" />
    <glyph glyph-name="sigma" unicode="&#x3c3;" horiz-adv-x="567" 
d="M523 408h-84c30 -20 53 -82 53 -147c0 -108 -16 -155 -58 -201c-30 -32 -81 -66 -164 -66s-133 34 -163 67c-40 44 -56 92 -56 200c0 107 14 153 56 199c30 32 79 61 162 61h254v-113zM362 260c0 64 -7 104 -27 128c-13 16 -37 24 -65 24s-50 -11 -63 -27
c-20 -24 -26 -60 -26 -124s5 -97 25 -121c13 -16 36 -28 64 -28s52 11 65 27c20 24 27 57 27 121z" />
    <glyph glyph-name="tau" unicode="&#x3c4;" horiz-adv-x="405" 
d="M383 404h-115v-404h-131v404h-115v117h361v-117z" />
    <glyph glyph-name="upsilon" unicode="&#x3c5;" horiz-adv-x="550" 
d="M492 264c0 -86 -7 -152 -59 -206c-36 -37 -85 -64 -158 -64s-122 27 -158 64c-52 54 -59 120 -59 206v257h131v-282c0 -40 3 -81 29 -104c18 -17 35 -24 57 -24s39 7 57 24c26 23 30 64 30 104v282h130v-257z" />
    <glyph glyph-name="phi" unicode="&#x3c6;" horiz-adv-x="699" 
d="M648 263c0 -155 -62 -266 -232 -269v-185h-130v185c-169 7 -235 124 -235 267c0 115 43 205 158 262l46 -96c-60 -38 -73 -101 -73 -170c0 -73 18 -143 104 -149v413h115c177 0 247 -82 247 -258zM517 265c0 84 -12 144 -101 144v-301c89 3 101 66 101 157z" />
    <glyph glyph-name="chi" unicode="&#x3c7;" horiz-adv-x="527" 
d="M515 0h-156l-96 156l-95 -156h-156l180 266l-173 255h156l88 -149l89 149h156l-173 -255z" />
    <glyph glyph-name="psi" unicode="&#x3c8;" horiz-adv-x="700" 
d="M642 261c0 -94 -13 -155 -56 -202c-33 -37 -88 -62 -170 -62v-188h-131v188c-82 0 -137 25 -170 62c-43 47 -57 108 -57 202v260h131v-284c0 -75 28 -126 96 -126v410h131v-410c69 0 95 48 95 126v284h131v-260z" />
    <glyph glyph-name="omega" unicode="&#x3c9;" horiz-adv-x="759" 
d="M708 261c0 -81 -8 -140 -43 -190c-30 -42 -80 -77 -151 -77c-73 0 -109 31 -135 71c-26 -40 -62 -71 -135 -71c-71 0 -120 35 -150 77c-35 50 -43 109 -43 190c0 84 14 153 56 199c30 32 78 67 161 67v-118c-28 0 -49 -13 -62 -29c-20 -24 -25 -52 -25 -119
c0 -42 2 -90 22 -121c11 -16 26 -28 49 -28c29 0 47 23 55 51c6 22 7 46 7 64v142h130v-142c0 -18 0 -43 6 -64c8 -29 26 -51 56 -51c23 0 38 12 49 28c20 31 22 79 22 121c0 67 -4 95 -24 119c-13 16 -35 29 -63 29v118c83 0 131 -35 161 -67c42 -46 57 -115 57 -199z" />
    <glyph glyph-name="iotadieresis" unicode="&#x3ca;" horiz-adv-x="325" 
d="M294 0h-74c-107 0 -152 75 -152 149v372h130v-364c0 -31 13 -47 46 -47h50v-110zM304 606h-111v125h111v-125zM83 606h-111v125h111v-125z" />
    <glyph glyph-name="upsilondieresis" unicode="&#x3cb;" horiz-adv-x="550" 
d="M492 264c0 -86 -7 -152 -59 -206c-36 -37 -85 -64 -158 -64s-122 27 -158 64c-52 54 -59 120 -59 206v257h131v-282c0 -40 3 -81 29 -104c18 -17 35 -24 57 -24s39 7 57 24c26 23 30 64 30 104v282h130v-257zM443 606h-111v125h111v-125zM222 606h-111v125h111v-125z" />
    <glyph glyph-name="omicrontonos" unicode="&#x3cc;" 
d="M492 261c0 -95 -12 -154 -59 -203c-32 -34 -85 -64 -162 -64s-129 30 -161 64c-47 49 -59 108 -59 203c0 94 12 153 59 202c32 34 84 64 161 64s130 -30 162 -64c47 -49 59 -108 59 -202zM362 261c0 54 -3 99 -30 126c-15 15 -35 23 -61 23s-45 -8 -60 -23
c-27 -27 -30 -72 -30 -126s3 -100 30 -127c15 -15 34 -23 60 -23s46 8 61 23c27 27 30 73 30 127zM332 622l-116 -49v158h116v-109z" />
    <glyph glyph-name="upsilontonos" unicode="&#x3cd;" horiz-adv-x="550" 
d="M492 264c0 -86 -7 -152 -59 -206c-36 -37 -85 -64 -158 -64s-122 27 -158 64c-52 54 -59 120 -59 206v257h131v-282c0 -40 3 -81 29 -104c18 -17 35 -24 57 -24s39 7 57 24c26 23 30 64 30 104v282h130v-257zM332 622l-116 -49v158h116v-109z" />
    <glyph glyph-name="omegatonos" unicode="&#x3ce;" horiz-adv-x="759" 
d="M708 261c0 -81 -8 -140 -43 -190c-30 -42 -80 -77 -151 -77c-73 0 -109 31 -135 71c-26 -40 -62 -71 -135 -71c-71 0 -120 35 -150 77c-35 50 -43 109 -43 190c0 84 14 153 56 199c30 32 78 67 161 67v-118c-28 0 -49 -13 -62 -29c-20 -24 -25 -52 -25 -119
c0 -42 2 -90 22 -121c11 -16 26 -28 49 -28c29 0 47 23 55 51c6 22 7 46 7 64v142h130v-142c0 -18 0 -43 6 -64c8 -29 26 -51 56 -51c23 0 38 12 49 28c20 31 22 79 22 121c0 67 -4 95 -24 119c-13 16 -35 29 -63 29v118c83 0 131 -35 161 -67c42 -46 57 -115 57 -199z
M440 622l-116 -49v158h116v-109z" />
    <glyph glyph-name="beta1" unicode="&#x3d0;" horiz-adv-x="579" 
d="M531 218c0 -59 -16 -126 -58 -169c-32 -32 -79 -55 -140 -55c-66 0 -106 26 -130 52v-237h-130v712c0 126 95 194 221 194c123 0 213 -63 213 -180c0 -38 -9 -77 -29 -103c-16 -20 -33 -33 -52 -41c23 -8 46 -21 63 -40c28 -32 42 -74 42 -133zM402 228
c0 55 -20 78 -44 89c-20 9 -40 13 -72 13h-51v103h61c73 0 87 50 87 88c0 26 -10 47 -21 59c-15 16 -37 25 -65 25c-67 0 -94 -40 -94 -99v-295c0 -60 40 -101 94 -101c30 0 51 6 69 21c27 23 36 63 36 97z" />
    <glyph glyph-name="afii10023" unicode="&#x401;" horiz-adv-x="605" 
d="M552 0h-469v712h469v-124h-330v-167h281v-124h-281v-173h330v-124zM476 783h-111v125h111v-125zM255 783h-111v125h111v-125z" />
    <glyph glyph-name="afii10051" unicode="&#x402;" horiz-adv-x="748" 
d="M323 328v-328h-138v588h-156v124h511v-124h-217v-140h130c138 0 231 -87 231 -217v-13c0 -131 -94 -218 -231 -218h-42v119h31c62 0 103 40 103 99v13c0 58 -41 97 -103 97h-119z" />
    <glyph glyph-name="afii10052" unicode="&#x403;" horiz-adv-x="561" 
d="M534 588h-309v-588h-139v712h448v-124zM440 951l-114 -170h-87l64 170h137z" />
    <glyph glyph-name="afii10053" unicode="&#x404;" horiz-adv-x="619" 
d="M444 216h138c-24 -146 -129 -222 -261 -222c-78 0 -141 27 -192 78c-72 72 -70 161 -70 284s-2 212 70 284c51 51 114 78 192 78c133 0 237 -76 261 -222h-138c-15 57 -53 101 -122 101c-39 0 -70 -15 -91 -39c-24 -26 -32 -55 -35 -140h221v-121h-222
c3 -88 12 -117 36 -143c21 -24 52 -39 91 -39c69 0 108 44 122 101z" />
    <glyph glyph-name="afii10054" unicode="&#x405;" horiz-adv-x="591" 
d="M543 210c0 -138 -115 -216 -264 -216c-108 0 -190 23 -260 94l90 90c45 -45 106 -60 172 -60c82 0 126 31 126 88c0 25 -7 46 -22 60c-14 13 -30 20 -63 25l-86 12c-61 9 -106 28 -138 59c-34 34 -51 80 -51 140c0 127 94 216 248 216c98 0 169 -24 230 -83l-88 -87
c-45 43 -99 49 -146 49c-74 0 -110 -41 -110 -90c0 -18 6 -37 21 -51c14 -13 37 -24 66 -28l84 -12c65 -9 106 -27 136 -55c38 -36 55 -88 55 -151z" />
    <glyph glyph-name="afii10055" unicode="&#x406;" horiz-adv-x="305" 
d="M222 0h-139v712h139v-712z" />
    <glyph glyph-name="afii10056" unicode="&#x407;" horiz-adv-x="305" 
d="M222 0h-139v712h139v-712zM318 783h-111v125h111v-125zM97 783h-111v125h111v-125z" />
    <glyph glyph-name="afii10057" unicode="&#x408;" horiz-adv-x="511" 
d="M437 234c0 -157 -119 -240 -251 -240c-77 0 -130 20 -183 73l92 91c23 -23 45 -40 91 -40c68 0 112 40 112 122v472h139v-478z" />
    <glyph glyph-name="afii10058" unicode="&#x409;" horiz-adv-x="1008" 
d="M732 319h-130v-195h130c63 0 103 39 103 98c0 58 -40 97 -103 97zM159 712h443v-268h141c139 0 231 -92 231 -222s-93 -222 -231 -222h-280v588h-170v-207c0 -299 -73 -381 -221 -381h-55v124h20c71 0 122 42 122 265v323z" />
    <glyph glyph-name="afii10059" unicode="&#x40a;" horiz-adv-x="1008" 
d="M974 222c0 -130 -93 -222 -231 -222h-280v320h-241v-320h-139v712h139v-268h241v268h139v-268h141c139 0 231 -92 231 -222zM732 319h-130v-195h130c63 0 103 39 103 98c0 58 -40 97 -103 97z" />
    <glyph glyph-name="afii10060" unicode="&#x40b;" horiz-adv-x="748" 
d="M684 0h-139v231c0 58 -41 97 -103 97h-119v-328h-138v588h-156v124h511v-124h-217v-140h130c138 0 231 -87 231 -217v-231z" />
    <glyph glyph-name="afii10061" unicode="&#x40c;" horiz-adv-x="640" 
d="M224 0h-139v712h139v-338l230 338h166l-239 -334l263 -378h-170l-250 372v-372zM487 951l-114 -170h-87l64 170h137z" />
    <glyph glyph-name="afii10062" unicode="&#x40e;" horiz-adv-x="581" 
d="M460 893c-4 -108 -83 -143 -162 -143s-158 35 -162 143h98c3 -44 28 -62 64 -62s61 18 64 62h98zM577 712l-252 -592c-27 -64 -76 -120 -159 -120h-85v124h56c38 0 61 16 74 45l21 49l-228 494h145l149 -343l135 343h144z" />
    <glyph glyph-name="afii10145" unicode="&#x40f;" horiz-adv-x="686" 
d="M602 0h-192v-158h-134v158h-193v712h139v-588h241v588h139v-712z" />
    <glyph glyph-name="afii10017" unicode="&#x410;" horiz-adv-x="638" 
d="M633 0h-145l-42 126h-253l-43 -126h-145l259 712h109zM409 243l-87 259l-90 -259h177z" />
    <glyph glyph-name="afii10018" unicode="&#x411;" horiz-adv-x="654" 
d="M599 222c0 -130 -87 -222 -231 -222h-285v712h471v-124h-332v-144h146c143 0 231 -92 231 -222zM460 222c0 58 -37 98 -99 98h-139v-196h139c62 0 99 39 99 98z" />
    <glyph glyph-name="afii10019" unicode="&#x412;" horiz-adv-x="658" 
d="M501 365c28 -15 39 -23 54 -38c31 -33 44 -73 44 -123c0 -125 -84 -204 -218 -204h-298v712h286c134 0 220 -76 220 -196c0 -68 -29 -118 -88 -151zM222 424h136c57 0 92 31 92 82s-35 82 -92 82h-136v-164zM222 124h145c57 0 93 34 93 88s-36 87 -93 87h-145v-175z" />
    <glyph glyph-name="afii10020" unicode="&#x413;" horiz-adv-x="561" 
d="M534 588h-309v-588h-139v712h448v-124z" />
    <glyph glyph-name="afii10021" unicode="&#x414;" horiz-adv-x="705" 
d="M677 -158h-134v158h-395v-158h-134v282h67c59 91 85 242 85 406v182h429v-588h82v-282zM456 124v464h-157v-103c0 -141 -14 -262 -63 -361h220z" />
    <glyph glyph-name="afii10022" unicode="&#x415;" horiz-adv-x="605" 
d="M552 0h-469v712h469v-124h-330v-167h281v-124h-281v-173h330v-124z" />
    <glyph glyph-name="afii10024" unicode="&#x416;" horiz-adv-x="939" 
d="M162 0h-168l257 378l-233 334h164l218 -338v338h139v-338l218 338h164l-233 -334l257 -378h-168l-238 372v-372h-139v372z" />
    <glyph glyph-name="afii10025" unicode="&#x417;" horiz-adv-x="606" 
d="M293 -6c-130 0 -234 76 -259 222h138c15 -57 53 -101 122 -101c70 0 114 39 114 96c0 60 -36 96 -108 96h-92v114h93c61 0 97 33 97 90c0 55 -40 88 -103 88c-69 0 -107 -46 -121 -103h-139c25 146 129 222 261 222c139 0 241 -77 241 -197c0 -69 -37 -123 -93 -153
c63 -28 103 -84 103 -162c0 -129 -107 -212 -254 -212z" />
    <glyph glyph-name="afii10026" unicode="&#x418;" horiz-adv-x="706" 
d="M623 0h-139v457l-277 -457h-124v712h139v-456l277 456h124v-712z" />
    <glyph glyph-name="afii10027" unicode="&#x419;" horiz-adv-x="706" 
d="M516 893c-4 -108 -83 -143 -162 -143s-158 35 -162 143h98c3 -44 28 -62 64 -62s61 18 64 62h98zM623 0h-139v457l-277 -457h-124v712h139v-456l277 456h124v-712z" />
    <glyph glyph-name="afii10028" unicode="&#x41a;" horiz-adv-x="640" 
d="M224 0h-139v712h139v-338l230 338h166l-239 -334l263 -378h-170l-250 372v-372z" />
    <glyph glyph-name="afii10029" unicode="&#x41b;" horiz-adv-x="686" 
d="M602 0h-139v588h-170v-207c0 -299 -73 -381 -221 -381h-55v124h20c71 0 122 42 122 265v323h443v-712z" />
    <glyph glyph-name="afii10030" unicode="&#x41c;" horiz-adv-x="811" 
d="M728 0h-139v415l-136 -270h-94l-137 270v-415h-139v712h137l186 -385l185 385h137v-712z" />
    <glyph glyph-name="afii10031" unicode="&#x41d;" horiz-adv-x="685" 
d="M602 0h-139v298h-241v-298h-139v712h139v-291h241v291h139v-712z" />
    <glyph glyph-name="afii10032" unicode="&#x41e;" horiz-adv-x="644" 
d="M585 406v-76c0 -93 -1 -186 -71 -258c-50 -52 -115 -78 -192 -78s-143 27 -193 78c-69 71 -70 177 -70 254v59c0 142 15 199 70 255c50 51 116 78 193 78c76 0 142 -27 192 -78s71 -119 71 -234zM446 369c0 117 -7 156 -35 187c-22 25 -53 38 -89 38s-68 -13 -90 -38
c-32 -35 -34 -102 -34 -190v-36c0 -74 1 -141 34 -174c24 -24 54 -38 90 -38s67 13 89 38c29 33 35 68 35 213z" />
    <glyph glyph-name="afii10033" unicode="&#x41f;" horiz-adv-x="685" 
d="M602 0h-139v588h-241v-588h-139v712h519v-712z" />
    <glyph glyph-name="afii10034" unicode="&#x420;" horiz-adv-x="628" 
d="M83 712h276c137 0 235 -92 235 -222s-97 -222 -235 -222h-137v-268h-139v712zM222 393h130c62 0 103 38 103 97s-41 98 -103 98h-130v-195z" />
    <glyph glyph-name="afii10035" unicode="&#x421;" horiz-adv-x="620" 
d="M583 219c-25 -149 -130 -225 -262 -225c-78 0 -142 28 -192 78c-72 72 -70 161 -70 284s-2 212 70 284c50 50 114 78 192 78c133 0 237 -76 262 -225h-141c-14 57 -50 101 -120 101c-38 0 -69 -14 -89 -37c-27 -30 -35 -64 -35 -201s8 -171 35 -201c20 -23 51 -37 89 -37
c70 0 106 44 120 101h141z" />
    <glyph glyph-name="afii10036" unicode="&#x422;" horiz-adv-x="571" 
d="M541 588h-186v-588h-139v588h-186v124h511v-124z" />
    <glyph glyph-name="afii10037" unicode="&#x423;" horiz-adv-x="581" 
d="M577 712l-252 -592c-27 -64 -76 -120 -159 -120h-85v124h56c38 0 61 16 74 45l21 49l-228 494h145l149 -343l135 343h144z" />
    <glyph glyph-name="afii10038" unicode="&#x424;" horiz-adv-x="814" 
d="M475 556v-360c113 7 156 68 156 181c0 117 -41 174 -156 179zM340 196v360c-115 -5 -156 -62 -156 -179c0 -113 43 -174 156 -181zM476 -5h-138v85c-208 11 -293 118 -293 303c0 184 97 280 293 292v71h138v-71c197 -12 293 -108 293 -292c0 -185 -84 -292 -293 -303v-85
z" />
    <glyph glyph-name="afii10039" unicode="&#x425;" horiz-adv-x="603" 
d="M598 0h-159l-138 248l-137 -248h-159l221 365l-207 347h158l124 -230l125 230h157l-207 -347z" />
    <glyph glyph-name="afii10040" unicode="&#x426;" horiz-adv-x="712" 
d="M685 -158h-134v158h-468v712h139v-588h241v588h139v-588h83v-282z" />
    <glyph glyph-name="afii10041" unicode="&#x427;" horiz-adv-x="649" 
d="M565 0h-138v267c-37 -6 -105 -19 -181 -19c-91 0 -182 55 -182 173v291h139v-255c0 -62 39 -85 89 -85c43 0 106 9 135 15v325h138v-712z" />
    <glyph glyph-name="afii10042" unicode="&#x428;" horiz-adv-x="988" 
d="M905 0h-822v712h139v-588h203v588h139v-588h202v588h139v-712z" />
    <glyph glyph-name="afii10043" unicode="&#x429;" horiz-adv-x="1014" 
d="M987 -158h-134v158h-770v712h139v-588h203v588h139v-588h202v588h139v-588h82v-282z" />
    <glyph glyph-name="afii10044" unicode="&#x42a;" horiz-adv-x="727" 
d="M693 222c0 -130 -94 -222 -231 -222h-280v588h-152v124h291v-268h141c138 0 231 -92 231 -222zM554 222c0 58 -41 98 -103 98h-130v-196h130c62 0 103 39 103 98z" />
    <glyph glyph-name="afii10045" unicode="&#x42b;" horiz-adv-x="893" 
d="M810 0h-139v712h139v-712zM594 222c0 -130 -93 -222 -231 -222h-280v712h139v-268h141c139 0 231 -92 231 -222zM455 222c0 58 -40 98 -103 98h-130v-196h130c63 0 103 39 103 98z" />
    <glyph glyph-name="afii10046" unicode="&#x42c;" horiz-adv-x="628" 
d="M594 222c0 -130 -93 -222 -231 -222h-280v712h139v-268h141c139 0 231 -92 231 -222zM455 222c0 58 -40 98 -103 98h-130v-196h130c63 0 103 39 103 98z" />
    <glyph glyph-name="afii10047" unicode="&#x42d;" horiz-adv-x="619" 
d="M37 216h138c14 -57 53 -101 122 -101c39 0 70 15 91 39c24 26 33 55 36 143h-222v121h221c-3 85 -11 114 -35 140c-21 24 -52 39 -91 39c-69 0 -107 -44 -122 -101h-138c24 146 128 222 261 222c78 0 141 -27 192 -78c72 -72 70 -161 70 -284s2 -212 -70 -284
c-51 -51 -114 -78 -192 -78c-132 0 -237 76 -261 222z" />
    <glyph glyph-name="afii10048" unicode="&#x42e;" horiz-adv-x="914" 
d="M592 718c77 0 142 -26 193 -78c53 -54 70 -123 70 -221v-73c0 -119 -1 -202 -70 -274c-50 -52 -115 -78 -192 -78c-78 0 -143 26 -193 78c-59 60 -69 132 -71 226h-107v-298h-139v712h139v-290h108c4 104 17 163 70 218c49 52 115 78 192 78zM716 340v42
c0 92 -7 143 -34 174c-22 25 -54 38 -90 38s-68 -13 -89 -38c-28 -32 -35 -89 -35 -179v-44c0 -104 8 -146 35 -176c22 -25 54 -39 89 -39s68 14 90 39c30 33 34 84 34 183z" />
    <glyph glyph-name="afii10049" unicode="&#x42f;" horiz-adv-x="650" 
d="M314 268l-117 -268h-165l147 296c-75 34 -122 104 -122 194c0 136 97 222 234 222h276v-712h-139v268h-114zM428 391v199h-130c-62 0 -103 -39 -103 -98c0 -58 41 -101 103 -101h130z" />
    <glyph glyph-name="afii10065" unicode="&#x430;" horiz-adv-x="534" 
d="M467 0h-127v45c-23 -22 -34 -30 -54 -38s-44 -12 -74 -12c-111 0 -176 60 -176 162c0 94 68 152 178 152h123v26c0 58 -29 82 -99 82c-46 0 -67 -9 -98 -43l-83 81c30 30 44 41 70 53c30 13 66 19 115 19c150 0 225 -62 225 -184v-343zM337 220h-103
c-46 0 -73 -21 -73 -59c0 -40 27 -60 82 -60c67 0 94 26 94 91v28z" />
    <glyph glyph-name="afii10066" unicode="&#x431;" horiz-adv-x="548" 
d="M280 111c25 0 47 7 63 26c17 21 27 62 27 123c0 57 -9 97 -26 118c-15 20 -38 28 -64 28s-49 -7 -65 -27c-16 -21 -26 -61 -26 -118c0 -64 10 -104 29 -125c15 -18 37 -25 62 -25zM282 -6c-77 0 -146 26 -181 81c-31 49 -42 132 -42 229c0 244 17 304 83 356
c65 50 159 57 313 58v-112c-66 -5 -154 1 -213 -30c-48 -25 -66 -57 -66 -120c20 34 73 60 130 60c65 0 99 -16 128 -42c46 -43 66 -122 66 -211c0 -104 -19 -162 -64 -209c-37 -39 -92 -60 -154 -60z" />
    <glyph glyph-name="afii10067" unicode="&#x432;" horiz-adv-x="550" 
d="M498 150c0 -92 -62 -150 -160 -150h-266v521h257c98 0 161 -56 161 -143c0 -49 -21 -84 -66 -110c50 -26 74 -62 74 -118zM298 425h-97v-111h97c41 0 63 20 63 56c0 35 -22 55 -63 55zM369 157c0 38 -24 60 -65 60h-103v-121h103c41 0 65 24 65 61z" />
    <glyph glyph-name="afii10068" unicode="&#x433;" horiz-adv-x="434" 
d="M421 406h-215v-406h-130v521h345v-115z" />
    <glyph glyph-name="afii10069" unicode="&#x434;" horiz-adv-x="580" 
d="M557 -128h-123v128h-298v-128h-123v243h53c27 48 51 111 51 247v159h374v-406h66v-243zM361 115v291h-119v-68c0 -105 -14 -170 -40 -223h159z" />
    <glyph glyph-name="afii10070" unicode="&#x435;" horiz-adv-x="548" 
d="M501 220h-326c4 -78 43 -116 119 -116c21 0 43 4 60 11c19 8 30 16 53 38l79 -77c-39 -37 -57 -49 -90 -63c-30 -12 -66 -19 -107 -19c-160 0 -242 91 -242 268c0 163 87 265 227 265c138 0 227 -98 227 -249v-58zM373 309c-4 71 -39 110 -99 110s-96 -40 -99 -110h198z
" />
    <glyph glyph-name="afii10072" unicode="&#x436;" horiz-adv-x="761" 
d="M147 0h-153l183 278l-171 243h149l160 -247v247h131v-247l161 247h149l-171 -243l182 -278h-152l-169 272v-272h-131v272z" />
    <glyph glyph-name="afii10073" unicode="&#x437;" horiz-adv-x="496" 
d="M444 154c0 -97 -92 -160 -199 -160c-82 0 -166 18 -228 74l75 82c37 -33 83 -46 132 -46c46 0 91 19 91 59c0 39 -29 56 -75 56h-79v93h77c43 0 70 22 70 57c0 36 -35 53 -88 53c-39 0 -79 -12 -113 -36l-72 80c59 47 133 61 211 61c100 0 190 -49 190 -141
c0 -49 -28 -92 -71 -112c47 -20 79 -64 79 -120z" />
    <glyph glyph-name="afii10074" unicode="&#x438;" horiz-adv-x="589" 
d="M517 0h-131v318l-183 -318h-131v521h131v-310l183 310h131v-521z" />
    <glyph glyph-name="afii10075" unicode="&#x439;" horiz-adv-x="589" 
d="M456 722c-3 -108 -83 -143 -162 -143s-158 35 -162 143h98c3 -44 28 -62 64 -62s61 18 64 62h98zM517 0h-131v318l-183 -318h-131v521h131v-310l183 310h131v-521z" />
    <glyph glyph-name="afii10076" unicode="&#x43a;" horiz-adv-x="533" 
d="M204 0h-131v521h131v-247l171 247h152l-184 -243l196 -278h-156l-179 272v-272z" />
    <glyph glyph-name="afii10077" unicode="&#x43b;" horiz-adv-x="571" 
d="M498 0h-130v406h-125v-125c0 -223 -61 -281 -167 -281h-62v115h16c44 0 87 8 87 195v211h381v-521z" />
    <glyph glyph-name="afii10078" unicode="&#x43c;" horiz-adv-x="677" 
d="M604 0h-130v301l-98 -193h-74l-99 193v-301h-131v521h129l138 -274l137 274h128v-521z" />
    <glyph glyph-name="afii10079" unicode="&#x43d;" horiz-adv-x="573" 
d="M501 0h-131v209h-167v-209h-131v521h131v-197h167v197h131v-521z" />
    <glyph glyph-name="afii10080" unicode="&#x43e;" 
d="M492 263c0 -106 -15 -159 -59 -205c-40 -42 -96 -64 -162 -64s-121 22 -161 64c-44 46 -59 99 -59 203c0 103 16 156 59 202c40 42 95 64 161 64s122 -22 162 -64c43 -45 59 -99 59 -200zM362 261c0 67 -5 149 -91 149c-89 0 -90 -90 -90 -157c0 -100 27 -142 90 -142
c87 0 91 82 91 150z" />
    <glyph glyph-name="afii10081" unicode="&#x43f;" horiz-adv-x="573" 
d="M501 0h-131v406h-167v-406h-131v521h429v-521z" />
    <glyph glyph-name="afii10082" unicode="&#x440;" horiz-adv-x="560" 
d="M199 472c40 40 71 55 128 55c52 0 99 -17 129 -47c21 -21 37 -53 44 -88c7 -38 9 -64 9 -133c0 -122 -14 -179 -53 -218c-30 -30 -77 -47 -129 -47c-54 0 -87 15 -124 52v-237h-130v712h126v-49zM379 262c0 109 -23 148 -88 148c-90 0 -88 -90 -88 -157
c0 -102 25 -142 88 -142c65 0 88 40 88 151z" />
    <glyph glyph-name="afii10083" unicode="&#x441;" horiz-adv-x="480" 
d="M452 65c-31 -30 -46 -40 -74 -52c-29 -13 -61 -19 -97 -19c-149 0 -234 98 -234 271c0 164 87 262 234 262c36 0 69 -6 97 -18s43 -22 74 -52l-88 -88c-30 31 -51 41 -84 41c-68 0 -103 -51 -103 -149c0 -100 35 -150 103 -150c34 0 53 10 84 41z" />
    <glyph glyph-name="afii10084" unicode="&#x442;" horiz-adv-x="456" 
d="M445 406h-150v-406h-131v406h-153v115h434v-115z" />
    <glyph glyph-name="afii10085" unicode="&#x443;" horiz-adv-x="494" 
d="M490 521l-223 -605c-28 -75 -72 -107 -151 -107h-51v117h30c38 0 52 10 65 47l22 64l-178 484h137l108 -322l104 322h137z" />
    <glyph glyph-name="afii10086" unicode="&#x444;" horiz-adv-x="726" 
d="M681 264c0 -176 -100 -260 -253 -269v-186h-130v186c-153 9 -253 93 -253 269c0 175 98 253 253 262v186h130v-186c155 -9 253 -87 253 -262zM550 263c0 100 -41 146 -124 147v-299c81 2 124 52 124 152zM300 111v299c-83 -1 -124 -47 -124 -147s43 -150 124 -152z" />
    <glyph glyph-name="afii10087" unicode="&#x445;" horiz-adv-x="527" 
d="M515 0h-156l-96 156l-95 -156h-156l180 266l-173 255h156l88 -149l89 149h156l-173 -255z" />
    <glyph glyph-name="afii10088" unicode="&#x446;" horiz-adv-x="594" 
d="M571 -128h-124v128h-375v521h131v-406h167v406h131v-406h70v-243z" />
    <glyph glyph-name="afii10089" unicode="&#x447;" horiz-adv-x="548" 
d="M476 0h-130v183c-34 -6 -82 -14 -142 -14c-83 0 -146 52 -146 142v210h130v-174c0 -43 24 -63 64 -63c34 0 71 6 94 9v228h130v-521z" />
    <glyph glyph-name="afii10090" unicode="&#x448;" horiz-adv-x="822" 
d="M749 0h-677v521h131v-406h143v406h130v-406h143v406h130v-521z" />
    <glyph glyph-name="afii10091" unicode="&#x449;" horiz-adv-x="843" 
d="M819 -128h-123v128h-624v521h131v-406h143v406h130v-406h143v406h130v-406h70v-243z" />
    <glyph glyph-name="afii10092" unicode="&#x44a;" horiz-adv-x="590" 
d="M558 167c0 -98 -70 -167 -173 -167h-251v406h-122v115h253v-188h120c103 0 173 -68 173 -166zM361 231h-100v-129h100c42 0 69 25 69 65c0 39 -27 64 -69 64z" />
    <glyph glyph-name="afii10093" unicode="&#x44b;" horiz-adv-x="763" 
d="M687 0h-131v521h131v-521zM495 167c0 -98 -71 -167 -174 -167h-249v521h131v-188h118c103 0 174 -68 174 -166zM297 231h-98v-129h98c42 0 69 25 69 65c0 39 -27 64 -69 64z" />
    <glyph glyph-name="afii10094" unicode="&#x44c;" horiz-adv-x="529" 
d="M496 167c0 -98 -71 -167 -173 -167h-251v521h131v-188h120c103 0 173 -68 173 -166zM299 231h-100v-129h100c42 0 68 25 68 65c0 39 -26 64 -68 64z" />
    <glyph glyph-name="afii10095" unicode="&#x44d;" horiz-adv-x="480" 
d="M199 527c148 0 234 -97 234 -263c0 -173 -84 -270 -234 -270c-73 0 -118 21 -171 70l87 86c30 -30 50 -42 85 -42c65 0 96 45 103 111h-153v89h153c-9 64 -42 105 -104 105c-34 0 -55 -13 -84 -42l-87 86c53 49 98 70 171 70z" />
    <glyph glyph-name="afii10096" unicode="&#x44e;" horiz-adv-x="774" 
d="M723 262c0 -104 -16 -158 -59 -204c-40 -42 -96 -64 -162 -64c-55 0 -103 16 -139 45c-47 37 -74 94 -79 172h-81v-211h-131v521h131v-199h81c7 71 33 125 78 160c37 29 85 45 140 45c69 0 126 -23 165 -68c40 -45 56 -100 56 -197zM502 410c-29 0 -52 -10 -67 -32
c-17 -23 -23 -57 -23 -115c0 -59 6 -95 22 -119c15 -23 38 -33 68 -33c31 0 54 11 69 34c16 23 22 59 22 117c0 59 -7 93 -23 117c-15 21 -38 31 -68 31z" />
    <glyph glyph-name="afii10097" unicode="&#x44f;" horiz-adv-x="535" 
d="M335 288v129h-102c-43 0 -69 -26 -69 -65c0 -38 26 -64 69 -64h102zM177 0h-148l105 213c-58 22 -97 74 -97 145c0 95 71 163 173 163h253v-521h-130v185h-70z" />
    <glyph glyph-name="afii10071" unicode="&#x451;" horiz-adv-x="548" 
d="M501 220h-326c4 -78 43 -116 119 -116c21 0 43 4 60 11c19 8 30 16 53 38l79 -77c-39 -37 -57 -49 -90 -63c-30 -12 -66 -19 -107 -19c-160 0 -242 91 -242 268c0 163 87 265 227 265c138 0 227 -98 227 -249v-58zM373 309c-4 71 -39 110 -99 110s-96 -40 -99 -110h198z
M443 606h-111v125h111v-125zM222 606h-111v125h111v-125z" />
    <glyph glyph-name="afii10099" unicode="&#x452;" horiz-adv-x="569" 
d="M502 -26c0 -90 -40 -169 -172 -169h-60v110h36c46 0 65 36 65 68v294c0 57 -30 92 -82 92s-86 -36 -86 -92v-277h-131v535h-47v100h47v77h131v-77h228v-100h-228v-103c38 37 74 54 128 54c106 0 171 -74 171 -190v-322z" />
    <glyph glyph-name="afii10100" unicode="&#x453;" horiz-adv-x="434" 
d="M421 406h-215v-406h-130v521h345v-115zM368 774l-114 -170h-87l64 170h137z" />
    <glyph glyph-name="afii10101" unicode="&#x454;" horiz-adv-x="480" 
d="M452 64c-52 -49 -97 -70 -171 -70c-149 0 -234 97 -234 270c0 166 87 263 234 263c74 0 118 -21 171 -70l-86 -86c-30 29 -50 42 -85 42c-62 0 -95 -41 -103 -105h155v-89h-155c7 -66 38 -111 103 -111c35 0 55 12 85 42z" />
    <glyph glyph-name="afii10102" unicode="&#x455;" horiz-adv-x="501" 
d="M465 164c0 -115 -98 -170 -221 -170c-82 0 -156 9 -222 75l85 85c43 -43 99 -49 139 -49c45 0 92 15 92 54c0 26 -14 44 -55 48l-82 8c-94 9 -152 50 -152 146c0 108 95 166 201 166c81 0 149 -14 199 -61l-80 -81c-30 27 -76 35 -121 35c-52 0 -74 -24 -74 -50
c0 -19 8 -41 54 -45l82 -8c103 -10 155 -65 155 -153z" />
    <glyph glyph-name="afii10103" unicode="&#x456;" horiz-adv-x="275" 
d="M203 0h-130v521h130v-521zM204 610h-133v106h133v-106z" />
    <glyph glyph-name="afii10104" unicode="&#x457;" horiz-adv-x="275" 
d="M203 0h-130v521h130v-521zM304 606h-111v125h111v-125zM83 606h-111v125h111v-125z" />
    <glyph glyph-name="afii10105" unicode="&#x458;" horiz-adv-x="275" 
d="M203 -46c0 -74 -45 -149 -152 -149h-74v110h50c33 0 46 16 46 47v559h130v-567zM204 610h-133v106h133v-106z" />
    <glyph glyph-name="afii10106" unicode="&#x459;" horiz-adv-x="824" 
d="M664 167c0 39 -27 64 -69 64h-100v-129h100c42 0 69 25 69 65zM117 521h381v-188h121c103 0 174 -68 174 -166s-71 -167 -174 -167h-251v406h-125v-125c0 -223 -61 -281 -167 -281h-62v115h16c44 0 87 8 87 195v211z" />
    <glyph glyph-name="afii10107" unicode="&#x45a;" horiz-adv-x="827" 
d="M795 167c0 -98 -71 -167 -173 -167h-252v218h-167v-218h-131v521h131v-188h167v188h131v-188h121c103 0 173 -68 173 -166zM666 167c0 39 -26 64 -69 64h-100v-129h100c43 0 69 25 69 65z" />
    <glyph glyph-name="afii10108" unicode="&#x45b;" horiz-adv-x="569" 
d="M502 0h-131v267c0 57 -31 92 -83 92c-53 0 -85 -36 -85 -92v-267h-131v525h-47v100h47v87h131v-87h228v-100h-228v-103c38 37 73 54 127 54c105 0 172 -74 172 -190v-286z" />
    <glyph glyph-name="afii10109" unicode="&#x45c;" horiz-adv-x="533" 
d="M204 0h-131v521h131v-247l171 247h152l-184 -243l196 -278h-156l-179 272v-272zM426 774l-114 -170h-87l64 170h137z" />
    <glyph glyph-name="afii10110" unicode="&#x45e;" horiz-adv-x="494" 
d="M411 722c-3 -108 -83 -143 -162 -143s-158 35 -162 143h98c3 -44 28 -62 64 -62s61 18 64 62h98zM490 521l-223 -605c-28 -75 -72 -107 -151 -107h-51v117h30c38 0 52 10 65 47l22 64l-178 484h137l108 -322l104 322h137z" />
    <glyph glyph-name="afii10193" unicode="&#x45f;" horiz-adv-x="573" 
d="M501 0h-154v-128h-123v128h-152v521h131v-406h167v406h131v-521z" />
    <glyph glyph-name="afii10050" unicode="&#x490;" horiz-adv-x="561" 
d="M534 588h-309v-588h-139v712h314v158h134v-282z" />
    <glyph glyph-name="afii10098" unicode="&#x491;" horiz-adv-x="434" 
d="M421 406h-215v-406h-130v521h222v128h123v-243z" />
    <glyph glyph-name="endash" unicode="&#x2013;" 
d="M493 225h-443v121h443v-121z" />
    <glyph glyph-name="emdash" unicode="&#x2014;" horiz-adv-x="1027" 
d="M968 226h-909v125h909v-125z" />
    <glyph glyph-name="afii00208" unicode="&#x2015;" horiz-adv-x="1027" 
d="M968 226h-909v125h909v-125z" />
    <glyph glyph-name="quoteleft" unicode="&#x2018;" horiz-adv-x="273" 
d="M204 589h-136v123l136 105v-228z" />
    <glyph glyph-name="quoteright" unicode="&#x2019;" horiz-adv-x="273" 
d="M204 588l-136 -103v227h136v-124z" />
    <glyph glyph-name="quotesinglbase" unicode="&#x201a;" horiz-adv-x="271" 
d="M204 0l-136 -104v228h136v-124z" />
    <glyph glyph-name="quotedblleft" unicode="&#x201c;" horiz-adv-x="482" 
d="M414 589h-136v123l136 105v-228zM203 589h-135v123l135 105v-228z" />
    <glyph glyph-name="quotedblright" unicode="&#x201d;" horiz-adv-x="482" 
d="M414 588l-136 -103v227h136v-124zM203 588l-135 -103v227h135v-124z" />
    <glyph glyph-name="quotedblbase" unicode="&#x201e;" horiz-adv-x="485" 
d="M414 0l-136 -104v228h136v-124zM203 0l-135 -104v228h135v-124z" />
    <glyph glyph-name="dagger" unicode="&#x2020;" horiz-adv-x="579" 
d="M522 410h-168v-410h-130v410h-167v117h167v185h130v-185h168v-117z" />
    <glyph glyph-name="daggerdbl" unicode="&#x2021;" horiz-adv-x="579" 
d="M522 -6h-168v-185h-130v185h-167v117h167v299h-167v117h167v185h130v-185h168v-117h-168v-299h168v-117z" />
    <glyph glyph-name="bullet" unicode="&#x2022;" horiz-adv-x="493" 
d="M409 334c0 -90 -73 -163 -163 -163s-163 73 -163 163s73 163 163 163s163 -73 163 -163z" />
    <glyph glyph-name="ellipsis" unicode="&#x2026;" horiz-adv-x="846" 
d="M210 0h-142v141h142v-141zM493 0h-141v141h141v-141zM778 0h-141v141h141v-141z" />
    <glyph glyph-name="perthousand" unicode="&#x2030;" horiz-adv-x="1211" 
d="M1158 131c0 -90 -67 -137 -145 -137c-79 0 -145 47 -145 137v99c0 90 66 137 145 137c78 0 145 -47 145 -137v-99zM796 131c0 -90 -67 -137 -145 -137c-79 0 -145 47 -145 137v99c0 90 66 137 145 137c78 0 145 -47 145 -137v-99zM342 482c0 -90 -67 -137 -145 -137
c-79 0 -145 47 -145 137v99c0 90 66 137 145 137c78 0 145 -47 145 -137v-99zM644 712l-337 -712h-102l337 712h102zM1064 134v92c0 38 -19 57 -51 57c-33 0 -51 -19 -51 -57v-91c0 -38 18 -57 51 -57c32 0 51 18 51 56zM702 135v91c0 38 -19 57 -51 57
c-33 0 -51 -19 -51 -57v-91c0 -38 18 -57 51 -57c32 0 51 19 51 57zM248 486v91c0 38 -19 57 -51 57c-33 0 -51 -19 -51 -57v-91c0 -38 19 -57 51 -57s51 19 51 57z" />
    <glyph glyph-name="guilsinglleft" unicode="&#x2039;" horiz-adv-x="350" 
d="M283 27l-249 248l249 248v-155l-94 -93l94 -93v-155z" />
    <glyph glyph-name="guilsinglright" unicode="&#x203a;" horiz-adv-x="350" 
d="M316 275l-249 -248v155l95 93l-95 93v155z" />
    <glyph glyph-name="fraction" unicode="&#x2044;" horiz-adv-x="208" 
d="M323 712l-337 -712h-101l337 712h101z" />
    <glyph glyph-name="Euro" unicode="&#x20ac;" horiz-adv-x="684" 
d="M632 219c-25 -149 -129 -225 -261 -225c-78 0 -141 27 -192 78c-46 46 -61 98 -67 165h-73v83h69v75h-69v83h73c6 66 22 117 67 162c51 51 114 78 192 78c133 0 236 -76 261 -225h-141c-14 57 -51 101 -120 101c-38 0 -68 -15 -88 -37c-17 -19 -25 -39 -29 -79h148v-83
h-154v-75h154v-83h-149c4 -43 13 -63 30 -82c20 -22 50 -37 88 -37c69 0 107 44 121 101h140z" />
    <glyph glyph-name="afii61352" unicode="&#x2116;" horiz-adv-x="965" 
d="M568 0h-115l-254 456v-456h-130v712h115l254 -456v456h130v-712zM915 225h-290v93h290v-93zM820 538c0 37 -1 69 -17 84c-7 8 -17 12 -32 12s-26 -4 -33 -12c-15 -15 -17 -47 -17 -84c0 -38 2 -69 17 -84c7 -7 18 -13 33 -13s25 6 32 13c16 15 17 46 17 84zM921 534
c0 -66 -11 -109 -41 -139c-22 -23 -62 -44 -109 -44c-48 0 -87 21 -109 44c-30 30 -41 74 -41 139c0 66 10 108 41 140c22 23 61 43 109 43c47 0 87 -20 109 -43c29 -31 41 -75 41 -140z" />
    <glyph glyph-name="trademark" unicode="&#x2122;" horiz-adv-x="924" 
d="M860 285h-95v252l-80 -157h-84l-80 157v-252h-95v427h95l122 -228l122 228h95v-427zM360 627h-110v-342h-95v342h-110v85h315v-85z" />
    <glyph glyph-name="uni2126" unicode="&#x2126;" horiz-adv-x="644" 
d="M585 0h-219v109c24 11 41 25 54 44c18 27 26 73 26 196c0 137 -9 176 -35 206c-20 23 -51 39 -89 39s-70 -16 -90 -39c-26 -30 -34 -69 -34 -206c0 -123 8 -169 26 -196c13 -19 30 -33 54 -44v-109h-219v123h59c-17 18 -28 36 -36 55c-20 49 -23 112 -23 178
c0 123 -2 212 70 284c50 50 112 78 193 78s142 -28 192 -78c72 -72 71 -161 71 -284c0 -66 -3 -129 -23 -178c-8 -19 -19 -37 -36 -55h59v-123z" />
    <glyph glyph-name="arrowleft" unicode="&#x2190;" horiz-adv-x="1027" 
d="M436 -100l-386 385l386 385h164l-327 -324h704v-123h-704l327 -323h-164z" />
    <glyph glyph-name="arrowup" unicode="&#x2191;" horiz-adv-x="1027" 
d="M899 200l-324 327v-705h-122v705l-324 -327v164l385 385l385 -385v-164z" />
    <glyph glyph-name="arrowright" unicode="&#x2192;" horiz-adv-x="1027" 
d="M429 -100l327 324h-705v122h705l-327 324h164l385 -385l-385 -385h-164z" />
    <glyph glyph-name="arrowdown" unicode="&#x2193;" horiz-adv-x="1027" 
d="M898 208l-385 -386l-385 386v164l324 -327v704h123v-704l323 327v-164z" />
    <glyph glyph-name="uni2196" unicode="&#x2196;" horiz-adv-x="1027" 
d="M884 1l-87 -87l-497 498l1 -460l-116 116v545h546l116 -116l-460 2z" />
    <glyph glyph-name="uni2197" unicode="&#x2197;" horiz-adv-x="1027" 
d="M841 69l-116 -116l2 459l-498 -498l-87 87l498 498l-460 -2l116 116h545v-544z" />
    <glyph glyph-name="uni2198" unicode="&#x2198;" horiz-adv-x="1027" 
d="M850 -63h-545l-115 115l459 -2l-498 498l87 87l498 -498l-2 459l116 -116v-543z" />
    <glyph glyph-name="uni2199" unicode="&#x2199;" horiz-adv-x="1027" 
d="M874 548l-497 -497l460 1l-116 -115l-546 -1l1 545l116 116l-2 -459l497 497z" />
    <glyph glyph-name="partialdiff" unicode="&#x2202;" horiz-adv-x="555" 
d="M482 254c0 -92 -12 -150 -57 -198c-31 -33 -82 -62 -156 -62s-124 29 -155 62c-45 48 -58 106 -58 198c0 94 13 151 58 199c29 31 76 60 150 60c31 0 62 -6 87 -29v27c0 36 -23 97 -104 97c-44 0 -73 -12 -102 -40l-81 82c54 52 109 68 189 68c153 0 229 -99 229 -237
v-227zM352 254c0 51 -3 94 -27 120c-14 14 -33 22 -56 22s-42 -8 -56 -22c-24 -26 -27 -69 -27 -120s3 -95 27 -121c14 -14 33 -22 56 -22s42 8 56 22c24 26 27 70 27 121z" />
    <glyph glyph-name="uni2206" unicode="&#x2206;" horiz-adv-x="634" 
d="M631 0h-628l260 712h108zM450 117l-130 385l-134 -385h264z" />
    <glyph glyph-name="product" unicode="&#x220f;" horiz-adv-x="685" 
d="M602 -191h-139v828h-241v-828h-139v951h519v-951z" />
    <glyph glyph-name="summation" unicode="&#x2211;" horiz-adv-x="552" 
d="M515 -191h-475v110l189 376l-186 355v110h468v-124h-306l141 -279v-129l-146 -295h315v-124z" />
    <glyph glyph-name="minus" unicode="&#x2212;" 
d="M493 225h-443v121h443v-121z" />
    <glyph glyph-name="uni2219" unicode="&#x2219;" horiz-adv-x="285" 
d="M217 212h-149v148h149v-148z" />
    <glyph glyph-name="radical" unicode="&#x221a;" horiz-adv-x="596" 
d="M566 588h-92l-194 -588h-105l-172 521h141l84 -273l143 464h195v-124z" />
    <glyph glyph-name="infinity" unicode="&#x221e;" horiz-adv-x="851" 
d="M796 284c0 -105 -66 -188 -190 -188c-71 0 -130 36 -181 94c-51 -58 -110 -94 -180 -94c-124 0 -190 83 -190 188s66 190 190 190c70 0 129 -37 180 -95c51 58 110 95 181 95c124 0 190 -85 190 -190zM337 281c-30 36 -56 66 -92 66c-35 0 -64 -25 -64 -66s29 -65 64 -65
c36 0 62 29 92 65zM670 281c0 41 -30 65 -65 65c-36 0 -61 -29 -91 -65c30 -36 55 -65 91 -65c35 0 65 24 65 65z" />
    <glyph glyph-name="uni2224" unicode="&#x2224;" horiz-adv-x="285" 
d="M217 212h-149v148h149v-148z" />
    <glyph glyph-name="logicaland" unicode="&#x2227;" horiz-adv-x="285" 
d="M217 212h-149v148h149v-148z" />
    <glyph glyph-name="integral" unicode="&#x222b;" horiz-adv-x="490" 
d="M433 615h-49c-45 0 -71 -23 -71 -71v-549c0 -117 -77 -181 -191 -181h-65v110h49c45 0 71 22 71 70v549c0 117 77 182 191 182h65v-110z" />
    <glyph glyph-name="approxequal" unicode="&#x2248;" horiz-adv-x="606" 
d="M569 393c-62 -62 -104 -86 -165 -86c-41 0 -74 10 -117 33c-29 15 -53 24 -82 24c-27 0 -49 -5 -86 -42l-82 82c62 62 103 86 164 86c41 0 74 -10 117 -33c29 -15 52 -25 81 -25c27 0 50 6 87 43zM569 167c-62 -62 -103 -86 -164 -86c-41 0 -74 10 -117 33
c-29 15 -52 25 -81 25c-27 0 -50 -6 -87 -43l-83 82c62 62 105 86 166 86c41 0 73 -10 116 -33c29 -15 53 -24 82 -24c27 0 49 5 86 42z" />
    <glyph glyph-name="notequal" unicode="&#x2260;" horiz-adv-x="602" 
d="M552 116h-320l-103 -129l-79 62l55 67h-55v122h149l78 95h-227v122h320l103 129l79 -62l-55 -67h55v-122h-148l-78 -95h226v-122z" />
    <glyph glyph-name="lessequal" unicode="&#x2264;" 
d="M475 175l-406 187v114l406 186v-137l-241 -106l241 -107v-137zM475 -42l-406 187v137l406 -187v-137z" />
    <glyph glyph-name="greaterequal" unicode="&#x2265;" 
d="M475 362l-406 -187v137l241 107l-241 106v137l406 -186v-114zM475 145l-406 -187v137l406 187v-137z" />
    <glyph glyph-name="dotmath" unicode="&#x22c5;" horiz-adv-x="285" 
d="M217 212h-149v148h149v-148z" />
    <glyph glyph-name="lozenge" unicode="&#x25ca;" horiz-adv-x="636" 
d="M581 341l-263 -367l-263 367l263 366zM435 341l-117 164l-117 -164l117 -165z" />
    <glyph glyph-name="parenleft.case" horiz-adv-x="336" 
d="M281 -7l-87 -87c-33 33 -65 64 -88 103c-23 40 -26 85 -26 129v436c0 44 3 89 26 129c23 39 55 70 88 103l87 -87c-24 -24 -39 -38 -56 -67c-10 -18 -15 -46 -15 -84v-424c0 -38 5 -66 15 -84c17 -29 32 -43 56 -67z" />
    <glyph glyph-name="parenright.case" horiz-adv-x="336" 
d="M256 138c0 -44 -3 -89 -26 -129c-23 -39 -55 -70 -88 -103l-88 88c24 24 39 37 56 66c10 18 15 46 15 84v424c0 38 -5 66 -15 84c-17 29 -32 42 -56 66l88 88c33 -33 65 -64 88 -103c23 -40 26 -85 26 -129v-436z" />
    <glyph glyph-name="hyphen.case" horiz-adv-x="426" 
d="M367 295h-308v121h308v-121z" />
    <glyph glyph-name="bracketleft.case" horiz-adv-x="378" 
d="M337 -74h-257v860h257v-117h-127v-626h127v-117z" />
    <glyph glyph-name="bracketright.case" horiz-adv-x="378" 
d="M299 -74h-257v116h127v628h-127v116h257v-860z" />
    <glyph glyph-name="braceleft.case" horiz-adv-x="457" 
d="M414 -74h-102c-52 0 -88 13 -112 37c-29 29 -42 66 -42 111v145c0 28 -5 48 -17 60c-11 11 -28 19 -52 19h-46v116h46c24 0 41 8 52 19c12 12 17 32 17 60v145c0 45 13 82 42 111c24 24 60 37 112 37h102v-117h-53c-30 0 -46 -3 -57 -14c-11 -12 -16 -30 -16 -64v-135
c0 -72 -43 -90 -69 -100c26 -10 69 -28 69 -100v-135c0 -34 5 -52 16 -64c11 -11 27 -14 57 -14h53v-117z" />
    <glyph glyph-name="braceright.case" horiz-adv-x="457" 
d="M414 298h-46c-24 0 -41 -8 -52 -19c-12 -12 -17 -32 -17 -60v-145c0 -45 -13 -82 -42 -111c-24 -24 -60 -37 -112 -37h-102v117h53c30 0 46 3 57 14c11 12 16 30 16 64v135c0 72 43 90 69 100c-26 10 -69 28 -69 100v135c0 34 -5 52 -16 64c-11 11 -27 14 -57 14h-53v117
h102c52 0 88 -13 112 -37c29 -29 42 -66 42 -111v-145c0 -28 5 -48 17 -60c11 -11 28 -19 52 -19h46v-116z" />
    <glyph glyph-name="guillemotleft.case" horiz-adv-x="628" 
d="M562 108l-250 248l250 248v-155l-96 -93l96 -93v-155zM283 108l-249 248l249 248v-155l-94 -93l94 -93v-155z" />
    <glyph glyph-name="uni00AD.case" horiz-adv-x="426" 
d="M367 295h-308v121h308v-121z" />
    <glyph glyph-name="guillemotright.case" horiz-adv-x="628" 
d="M595 356l-250 -248v155l94 93l-94 93v155zM316 356l-249 -248v155l95 93l-95 93v155z" />
    <glyph glyph-name="endash.case" 
d="M493 295h-443v121h443v-121z" />
    <glyph glyph-name="emdash.case" horiz-adv-x="1027" 
d="M968 293h-909v125h909v-125z" />
    <glyph glyph-name="guilsinglleft.case" horiz-adv-x="350" 
d="M283 108l-249 248l249 248v-155l-94 -93l94 -93v-155z" />
    <glyph glyph-name="guilsinglright.case" horiz-adv-x="350" 
d="M316 356l-249 -248v155l95 93l-95 93v155z" />
    <glyph glyph-name="grave.lc" 
d="M323 604h-87l-114 170h137z" />
    <glyph glyph-name="dieresis.lc" 
d="M438 606h-111v125h111v-125zM217 606h-111v125h111v-125z" />
    <glyph glyph-name="macron.lc" horiz-adv-x="500" 
d="M408 623h-317v88h317v-88z" />
    <glyph glyph-name="acute.lc" 
d="M418 774l-114 -170h-87l64 170h137z" />
    <glyph glyph-name="circumflex.lc" 
d="M456 604h-101l-83 91l-83 -91h-101l132 169h104z" />
    <glyph glyph-name="caron.lc" horiz-adv-x="478" 
d="M426 773l-132 -169h-104l-132 169h101l83 -90l83 90h101z" />
    <glyph glyph-name="breve.lc" horiz-adv-x="500" 
d="M414 748c-5 -108 -78 -151 -164 -151s-160 43 -164 151h87c5 -43 39 -60 77 -60s72 17 77 60h87z" />
    <glyph glyph-name="dotaccent.lc" horiz-adv-x="500" 
d="M192 612v115h115v-115h-115z" />
    <glyph glyph-name="ring.lc" horiz-adv-x="534" 
d="M392 715c0 -72 -59 -131 -131 -131s-131 59 -131 131s59 131 131 131s131 -58 131 -131zM319 715c0 32 -26 58 -58 58s-58 -26 -58 -58s26 -59 58 -59s58 27 58 59z" />
    <glyph glyph-name="tilde.lc" 
d="M447 671c-44 -44 -74 -58 -113 -58c-29 0 -49 6 -77 22c-19 11 -36 18 -56 18c-17 0 -32 -2 -58 -28l-57 57c44 44 74 58 112 58c30 0 49 -5 78 -22c19 -12 35 -19 55 -19c17 0 32 3 58 29z" />
    <glyph glyph-name="hungarumlaut.lc" horiz-adv-x="500" 
d="M260 774l-113 -170h-88l64 170h137zM462 774l-115 -170h-86l63 170h138z" />
    <glyph glyph-name="brevecyr.lc" horiz-adv-x="500" 
d="M412 722c-3 -108 -83 -143 -162 -143s-158 35 -162 143h98c3 -44 28 -62 64 -62s61 18 64 62h98z" />
    <glyph glyph-name="diedot.lc" 
d="M217 606h-111v125h111v-125z" />
    <glyph glyph-name="zero.lf" 
d="M488 206c0 -136 -100 -212 -216 -212s-217 76 -217 212v300c0 136 101 212 217 212s216 -76 216 -212v-300zM358 207v297c0 60 -35 97 -86 97s-87 -37 -87 -97v-297c0 -60 36 -96 87 -96s86 36 86 96z" />
    <glyph glyph-name="one.lf" horiz-adv-x="430" 
d="M328 0h-130v572l-145 -126v140l145 126h130v-712z" />
    <glyph glyph-name="two.lf" horiz-adv-x="527" 
d="M476 0h-433v117l266 309c26 31 37 53 37 86c0 53 -31 89 -86 89c-43 0 -87 -22 -87 -91h-130c0 130 95 208 217 208c126 0 216 -79 216 -207c0 -69 -27 -106 -76 -163l-199 -231h275v-117z" />
    <glyph glyph-name="three.lf" horiz-adv-x="534" 
d="M486 206c0 -142 -104 -212 -226 -212c-116 0 -225 61 -227 210h130c2 -64 46 -93 97 -93c56 0 96 35 96 99c0 59 -36 98 -100 98h-19v113h19c63 0 90 39 90 89c0 60 -40 91 -87 91c-49 0 -85 -32 -88 -86h-130c3 127 98 203 218 203c126 0 217 -84 217 -204
c0 -77 -35 -121 -82 -146c51 -27 92 -76 92 -162z" />
    <glyph glyph-name="four.lf" horiz-adv-x="560" 
d="M520 101h-65v-101h-125v101h-291v123l244 488h142l-244 -488h149v133h125v-133h65v-123z" />
    <glyph glyph-name="five.lf" horiz-adv-x="550" 
d="M498 240c0 -80 -11 -136 -63 -188c-32 -32 -83 -58 -157 -58s-128 26 -159 57c-44 44 -54 96 -58 148h130c7 -56 33 -88 87 -88c25 0 46 7 62 23c23 23 28 61 28 106c0 82 -24 128 -87 128c-53 0 -77 -30 -86 -58h-119v402h406v-117h-288v-153c19 18 59 36 107 36
c59 0 104 -19 133 -48c56 -56 64 -123 64 -190z" />
    <glyph glyph-name="six.lf" horiz-adv-x="524" 
d="M485 216c0 -140 -96 -222 -222 -222s-222 79 -222 220c0 65 28 125 60 190l150 308h142l-148 -294c17 7 36 9 53 9c96 0 187 -79 187 -211zM355 215c0 63 -37 104 -92 104c-53 0 -92 -38 -92 -104s39 -104 92 -104s92 38 92 104z" />
    <glyph glyph-name="seven.lf" horiz-adv-x="531" 
d="M496 595l-231 -595h-141l231 595h-188v-112h-124v229h453v-117z" />
    <glyph glyph-name="eight.lf" horiz-adv-x="560" 
d="M508 207c0 -138 -102 -213 -228 -213s-228 75 -228 213c0 87 50 134 89 160c-36 25 -80 72 -80 148c0 126 100 203 219 203s218 -77 218 -203c0 -76 -44 -123 -80 -148c39 -26 90 -73 90 -160zM378 209c0 55 -43 99 -98 99s-98 -44 -98 -99s43 -98 98 -98s98 43 98 98z
M368 511c0 51 -37 90 -88 90s-89 -39 -89 -90c0 -52 38 -90 89 -90s88 38 88 90z" />
    <glyph glyph-name="nine.lf" horiz-adv-x="524" 
d="M483 498c0 -65 -27 -125 -59 -190l-151 -308h-141l148 294c-17 -7 -36 -9 -53 -9c-96 0 -188 79 -188 211c0 140 96 222 222 222s222 -79 222 -220zM353 497c0 66 -39 104 -92 104s-92 -38 -92 -104c0 -63 37 -104 92 -104c53 0 92 38 92 104z" />
    <glyph glyph-name="zero.osf" horiz-adv-x="544" 
d="M489 206c0 -136 -101 -212 -217 -212s-217 76 -217 212v185c0 136 101 212 217 212s217 -76 217 -212v-185zM359 207v182c0 60 -36 97 -87 97s-87 -37 -87 -97v-182c0 -60 36 -96 87 -96s87 36 87 96z" />
    <glyph glyph-name="one.osf" horiz-adv-x="438" 
d="M329 0h-130v457l-146 -126v140l146 126h130v-597z" />
    <glyph glyph-name="two.osf" horiz-adv-x="548" 
d="M490 0h-447v117l233 199c44 38 71 70 71 108c0 48 -34 82 -86 82c-44 0 -87 -26 -87 -88h-130c0 128 97 205 217 205c123 0 216 -78 216 -197c0 -77 -55 -130 -127 -194l-129 -115h269v-117z" />
    <glyph glyph-name="three.osf" horiz-adv-x="535" 
d="M486 91c0 -142 -104 -213 -226 -213c-116 0 -225 61 -227 210h130c2 -64 46 -93 97 -93c56 0 96 35 96 99c0 59 -36 98 -100 98h-19v113h19c63 0 90 40 90 90c0 60 -40 91 -87 91c-49 0 -85 -32 -88 -86h-130c3 127 98 203 218 203c126 0 217 -84 217 -204
c0 -77 -35 -121 -82 -146c51 -27 92 -76 92 -162z" />
    <glyph glyph-name="four.osf" horiz-adv-x="590" 
d="M550 30h-80v-153h-124v153h-307v123l244 488h139l-243 -488h167v147h124v-147h80v-123z" />
    <glyph glyph-name="five.osf" horiz-adv-x="551" 
d="M499 125c0 -80 -11 -136 -63 -188c-32 -32 -83 -58 -157 -58s-128 26 -159 57c-44 44 -54 96 -58 148h130c7 -56 33 -88 87 -88c25 0 46 7 62 23c23 23 28 61 28 106c0 82 -24 128 -87 128c-53 0 -77 -30 -86 -58h-119v402h406v-117h-288v-153c19 18 59 36 107 36
c59 0 104 -19 133 -48c56 -56 64 -123 64 -190z" />
    <glyph glyph-name="six.osf" horiz-adv-x="549" 
d="M508 225c0 -147 -101 -231 -233 -231s-234 81 -234 228c0 83 23 144 69 227l155 279h139l-170 -297c22 11 44 15 76 15c105 0 198 -79 198 -221zM378 223c0 70 -42 117 -104 117c-60 0 -103 -44 -103 -117s43 -117 103 -117s104 44 104 117z" />
    <glyph glyph-name="seven.osf" horiz-adv-x="553" 
d="M518 480l-263 -598h-140l263 598h-209v-112h-124v229h473v-117z" />
    <glyph glyph-name="eight.osf" horiz-adv-x="560" 
d="M508 207c0 -138 -102 -213 -228 -213s-228 75 -228 213c0 87 51 134 90 160c-36 25 -80 72 -80 148c0 126 99 203 218 203s218 -77 218 -203c0 -76 -44 -123 -80 -148c39 -26 90 -73 90 -160zM378 209c0 55 -43 99 -98 99s-98 -44 -98 -99s43 -98 98 -98s98 43 98 98z
M368 511c0 51 -37 90 -88 90s-88 -39 -88 -90c0 -52 37 -90 88 -90s88 38 88 90z" />
    <glyph glyph-name="nine.osf" horiz-adv-x="549" 
d="M508 375c0 -83 -23 -144 -69 -227l-154 -279h-140l170 297c-22 -11 -44 -15 -76 -15c-105 0 -198 79 -198 221c0 147 101 231 233 231s234 -81 234 -228zM378 374c0 73 -43 117 -103 117s-104 -44 -104 -117c0 -70 42 -117 104 -117c60 0 103 44 103 117z" />
    <glyph glyph-name="exclam.ss01" horiz-adv-x="347" 
d="M273 712l-33 -489h-96l-32 489h161zM271 75c0 -43 -36 -78 -79 -78s-78 35 -78 78s35 79 78 79s79 -36 79 -79z" />
    <glyph glyph-name="period.ss01" horiz-adv-x="295" 
d="M235 84c0 -48 -40 -87 -88 -87s-87 39 -87 87s39 87 87 87s88 -39 88 -87z" />
    <glyph glyph-name="colon.ss01" horiz-adv-x="319" 
d="M259 349c0 -48 -39 -87 -87 -87s-87 39 -87 87s39 88 87 88s87 -40 87 -88zM259 84c0 -48 -39 -87 -87 -87s-87 39 -87 87s39 87 87 87s87 -39 87 -87z" />
    <glyph glyph-name="semicolon.ss01" horiz-adv-x="309" 
d="M243 -55l-142 -110v307h142v-197zM259 349c0 -48 -39 -87 -87 -87s-87 39 -87 87s39 88 87 88s87 -40 87 -88z" />
    <glyph glyph-name="question.ss01" horiz-adv-x="523" 
d="M487 518c0 -50 -21 -88 -49 -125l-74 -98c-10 -13 -18 -34 -18 -51v-21h-130v30c0 43 12 70 38 104l74 95c16 21 29 45 29 67c0 47 -31 82 -81 82c-53 0 -80 -37 -80 -83h-130c0 124 94 200 210 200c113 0 211 -73 211 -200zM360 75c0 -43 -36 -78 -79 -78s-78 35 -78 78
s35 79 78 79s79 -36 79 -79z" />
    <glyph glyph-name="at.ss01" horiz-adv-x="970" 
d="M919 338c0 -160 -123 -301 -303 -301h-104l10 47c-34 -36 -69 -53 -113 -53c-90 0 -140 59 -140 135c0 26 4 57 12 95c17 85 32 144 82 188c36 32 77 41 118 41c53 0 86 -21 106 -52l9 46h119l-74 -370c119 7 182 112 182 224c0 168 -120 275 -300 275
c-204 0 -363 -156 -363 -358c0 -222 140 -356 368 -356h75l-16 -83h-76c-273 0 -452 183 -452 439c0 255 201 448 464 448c237 0 396 -152 396 -365zM558 322c0 44 -26 64 -58 64c-21 0 -39 -7 -54 -20c-20 -18 -36 -48 -47 -105c-4 -20 -6 -42 -6 -62c0 -44 25 -64 57 -64
c21 0 41 7 56 21c20 18 34 50 45 105c4 20 7 41 7 61z" />
    <glyph glyph-name="C.ss01" horiz-adv-x="562" 
d="M519 76c-51 -50 -107 -82 -198 -82c-78 0 -142 28 -192 78c-72 72 -70 161 -70 284s-2 212 70 284c50 50 114 78 192 78c91 0 147 -32 198 -82l-92 -92c-31 31 -56 50 -106 50c-38 0 -68 -14 -88 -37c-27 -30 -35 -64 -35 -201s8 -171 35 -201c20 -23 50 -37 88 -37
c50 0 75 19 106 50z" />
    <glyph glyph-name="G.ss01" horiz-adv-x="637" 
d="M586 294c0 -103 -16 -166 -66 -218c-51 -53 -118 -82 -199 -82c-78 0 -142 28 -192 78c-72 72 -70 161 -70 284s-2 212 70 284c50 50 112 78 192 78c99 0 154 -27 218 -91l-94 -94c-40 40 -69 61 -124 61c-38 0 -69 -15 -89 -38c-27 -30 -34 -63 -34 -200s7 -171 34 -201
c20 -23 51 -37 89 -37c42 0 72 15 95 40s31 62 31 97v25h-126v116h265v-102z" />
    <glyph glyph-name="i.ss01" horiz-adv-x="275" 
d="M203 0h-130v521h130v-521zM219 668c0 -45 -36 -82 -81 -82s-82 37 -82 82s37 81 82 81s81 -36 81 -81z" />
    <glyph glyph-name="j.ss01" horiz-adv-x="275" 
d="M203 -46c0 -74 -45 -149 -152 -149h-74v110h50c33 0 46 16 46 47v559h130v-567zM219 668c0 -45 -36 -82 -81 -82s-82 37 -82 82s37 81 82 81s81 -36 81 -81z" />
    <glyph glyph-name="exclamdown.ss01" horiz-adv-x="347" 
d="M264 -191h-161l32 489h96zM262 446c0 -43 -36 -79 -79 -79s-78 36 -78 79s35 78 78 78s79 -35 79 -78z" />
    <glyph glyph-name="dieresis.ss01" horiz-adv-x="500" 
d="M430 667c0 -37 -30 -67 -67 -67s-67 30 -67 67s30 67 67 67s67 -30 67 -67zM204 667c0 -37 -30 -67 -67 -67s-67 30 -67 67s30 67 67 67s67 -30 67 -67z" />
    <glyph glyph-name="periodcentered.ss01" horiz-adv-x="295" 
d="M235 284c0 -48 -40 -87 -88 -87s-87 39 -87 87s39 88 87 88s88 -40 88 -88z" />
    <glyph glyph-name="cedilla.ss01" horiz-adv-x="500" 
d="M326 -133c0 -57 -44 -101 -112 -101v64c24 0 39 17 39 37s-15 37 -39 37v64c69 0 112 -44 112 -101z" />
    <glyph glyph-name="questiondown.ss01" horiz-adv-x="523" 
d="M478 4c0 -124 -95 -201 -211 -201c-113 0 -210 73 -210 200c0 50 21 88 49 125l74 99c10 13 18 34 18 51v20h130v-30c0 -43 -12 -70 -38 -104l-74 -95c-16 -21 -29 -45 -29 -67c0 -47 30 -82 80 -82c53 0 81 38 81 84h130zM341 446c0 -43 -35 -79 -78 -79s-79 36 -79 79
s36 78 79 78s78 -35 78 -78z" />
    <glyph glyph-name="Adieresis.ss01" horiz-adv-x="638" 
d="M633 0h-145l-42 126h-253l-43 -126h-145l259 712h109zM409 243l-87 259l-90 -259h177zM497 844c0 -37 -30 -67 -67 -67s-67 30 -67 67s30 67 67 67s67 -30 67 -67zM271 844c0 -37 -30 -67 -67 -67s-67 30 -67 67s30 67 67 67s67 -30 67 -67z" />
    <glyph glyph-name="Ccedilla.ss01" horiz-adv-x="562" 
d="M519 76c-51 -50 -107 -82 -198 -82c-78 0 -142 28 -192 78c-72 72 -70 161 -70 284s-2 212 70 284c50 50 114 78 192 78c91 0 147 -32 198 -82l-92 -92c-31 31 -56 50 -106 50c-38 0 -68 -14 -88 -37c-27 -30 -35 -64 -35 -201s8 -171 35 -201c20 -23 50 -37 88 -37
c50 0 75 19 106 50zM368 -133c0 -57 -44 -101 -112 -101v64c24 0 39 17 39 37s-15 37 -39 37v64c69 0 112 -44 112 -101z" />
    <glyph glyph-name="Edieresis.ss01" horiz-adv-x="605" 
d="M552 0h-469v712h469v-124h-330v-167h281v-124h-281v-173h330v-124zM490 844c0 -37 -30 -67 -67 -67s-67 30 -67 67s30 67 67 67s67 -30 67 -67zM264 844c0 -37 -30 -67 -67 -67s-67 30 -67 67s30 67 67 67s67 -30 67 -67z" />
    <glyph glyph-name="Idieresis.ss01" horiz-adv-x="305" 
d="M222 0h-139v712h139v-712zM336 844c0 -37 -30 -67 -67 -67s-67 30 -67 67s30 67 67 67s67 -30 67 -67zM110 844c0 -37 -30 -67 -67 -67s-67 30 -67 67s30 67 67 67s67 -30 67 -67z" />
    <glyph glyph-name="Odieresis.ss01" horiz-adv-x="644" 
d="M585 356c0 -123 1 -212 -71 -284c-50 -50 -111 -78 -192 -78s-143 28 -193 78c-72 72 -70 161 -70 284s-2 212 70 284c50 50 112 78 193 78s142 -28 192 -78c72 -72 71 -161 71 -284zM446 356c0 137 -8 170 -35 200c-20 23 -51 38 -89 38s-70 -15 -90 -38
c-27 -30 -34 -63 -34 -200s7 -170 34 -200c20 -23 52 -38 90 -38s69 15 89 38c27 30 35 63 35 200zM502 844c0 -37 -30 -67 -67 -67s-67 30 -67 67s30 67 67 67s67 -30 67 -67zM276 844c0 -37 -30 -67 -67 -67s-67 30 -67 67s30 67 67 67s67 -30 67 -67z" />
    <glyph glyph-name="Udieresis.ss01" horiz-adv-x="668" 
d="M596 244c0 -151 -116 -250 -262 -250s-262 99 -262 250v468h139v-463c0 -82 48 -131 123 -131s124 49 124 131v463h138v-468zM514 844c0 -37 -30 -67 -67 -67s-67 30 -67 67s30 67 67 67s67 -30 67 -67zM288 844c0 -37 -30 -67 -67 -67s-67 30 -67 67s30 67 67 67
s67 -30 67 -67z" />
    <glyph glyph-name="adieresis.ss01" horiz-adv-x="534" 
d="M467 0h-127v45c-35 -35 -68 -50 -128 -50c-59 0 -102 15 -133 46c-28 29 -43 71 -43 117c0 83 57 151 178 151h123v26c0 57 -28 82 -97 82c-50 0 -73 -12 -100 -43l-83 81c51 56 101 72 188 72c146 0 222 -62 222 -184v-343zM337 192v28h-103c-47 0 -73 -22 -73 -59
c0 -36 24 -60 75 -60c36 0 59 3 82 25c14 13 19 34 19 66zM441 667c0 -37 -30 -67 -67 -67s-67 30 -67 67s30 67 67 67s67 -30 67 -67zM215 667c0 -37 -30 -67 -67 -67s-67 30 -67 67s30 67 67 67s67 -30 67 -67z" />
    <glyph glyph-name="ccedilla.ss01" horiz-adv-x="480" 
d="M452 65c-46 -48 -100 -71 -172 -71c-104 0 -233 56 -233 267s129 266 233 266c72 0 126 -22 172 -70l-88 -88c-27 29 -50 41 -84 41c-31 0 -55 -11 -74 -34c-20 -25 -29 -60 -29 -115s9 -91 29 -116c19 -23 43 -34 74 -34c34 0 57 12 84 41zM326 -133
c0 -57 -44 -101 -112 -101v64c24 0 39 17 39 37s-15 37 -39 37v64c69 0 112 -44 112 -101z" />
    <glyph glyph-name="edieresis.ss01" horiz-adv-x="548" 
d="M501 220h-326c0 -67 41 -116 114 -116c57 0 85 16 118 49l79 -77c-53 -53 -104 -82 -198 -82c-123 0 -241 56 -241 267c0 170 92 266 227 266c145 0 227 -106 227 -249v-58zM373 309c-1 23 -4 37 -12 56c-14 31 -43 54 -87 54s-73 -23 -87 -54c-8 -19 -11 -33 -12 -56
h198zM457 667c0 -37 -30 -67 -67 -67s-67 30 -67 67s30 67 67 67s67 -30 67 -67zM231 667c0 -37 -30 -67 -67 -67s-67 30 -67 67s30 67 67 67s67 -30 67 -67z" />
    <glyph glyph-name="idieresis.ss01" horiz-adv-x="275" 
d="M203 0h-130v521h130v-521zM319 667c0 -37 -30 -67 -67 -67s-67 30 -67 67s30 67 67 67s67 -30 67 -67zM93 667c0 -37 -30 -67 -67 -67s-67 30 -67 67s30 67 67 67s67 -30 67 -67z" />
    <glyph glyph-name="odieresis.ss01" 
d="M492 261c0 -95 -12 -154 -59 -203c-32 -34 -85 -64 -162 -64s-129 30 -161 64c-47 49 -59 108 -59 203c0 94 12 153 59 202c32 34 84 64 161 64s130 -30 162 -64c47 -49 59 -108 59 -202zM362 261c0 54 -3 99 -30 126c-15 15 -35 23 -61 23s-45 -8 -60 -23
c-27 -27 -30 -72 -30 -126s3 -100 30 -127c15 -15 34 -23 60 -23s46 8 61 23c27 27 30 73 30 127zM452 667c0 -37 -30 -67 -67 -67s-67 30 -67 67s30 67 67 67s67 -30 67 -67zM226 667c0 -37 -30 -67 -67 -67s-67 30 -67 67s30 67 67 67s67 -30 67 -67z" />
    <glyph glyph-name="divide.ss01" 
d="M497 225h-451v121h451v-121zM359 79c0 -48 -39 -88 -87 -88s-88 40 -88 88s40 87 88 87s87 -39 87 -87zM359 492c0 -48 -39 -87 -87 -87s-88 39 -88 87s40 88 88 88s87 -40 87 -88z" />
    <glyph glyph-name="udieresis.ss01" horiz-adv-x="573" 
d="M500 0h-127v48c-34 -36 -82 -54 -130 -54c-52 0 -94 17 -123 46c-42 42 -53 91 -53 148v333h130v-315c0 -71 45 -95 86 -95s87 24 87 95v315h130v-521zM463 667c0 -37 -30 -67 -67 -67s-67 30 -67 67s30 67 67 67s67 -30 67 -67zM237 667c0 -37 -30 -67 -67 -67
s-67 30 -67 67s30 67 67 67s67 -30 67 -67z" />
    <glyph glyph-name="ydieresis.ss01" horiz-adv-x="494" 
d="M490 521l-223 -605c-11 -29 -23 -51 -39 -67c-30 -30 -69 -40 -112 -40h-51v117h30c37 0 52 9 65 47l22 64l-178 484h137l108 -322l104 322h137zM424 667c0 -37 -30 -67 -67 -67s-67 30 -67 67s30 67 67 67s67 -30 67 -67zM198 667c0 -37 -30 -67 -67 -67s-67 30 -67 67
s30 67 67 67s67 -30 67 -67z" />
    <glyph glyph-name="Aogonek.ss01" horiz-adv-x="638" 
d="M633 0h-145l-42 126h-253l-43 -126h-145l259 712h109zM409 243l-87 259l-90 -259h177zM620 -234c-69 0 -112 44 -112 101s43 101 112 101v-64c-24 0 -39 -17 -39 -37s15 -37 39 -37v-64z" />
    <glyph glyph-name="aogonek.ss01" horiz-adv-x="534" 
d="M467 0h-127v45c-35 -35 -68 -50 -128 -50c-59 0 -102 15 -133 46c-28 29 -43 71 -43 117c0 83 57 151 178 151h123v26c0 57 -28 82 -97 82c-50 0 -73 -12 -100 -43l-83 81c51 56 101 72 188 72c146 0 222 -62 222 -184v-343zM337 192v28h-103c-47 0 -73 -22 -73 -59
c0 -36 24 -60 75 -60c36 0 59 3 82 25c14 13 19 34 19 66zM453 -234c-69 0 -112 44 -112 101s43 101 112 101v-64c-24 0 -39 -17 -39 -37s15 -37 39 -37v-64z" />
    <glyph glyph-name="Cacute.ss01" horiz-adv-x="562" 
d="M519 76c-51 -50 -107 -82 -198 -82c-78 0 -142 28 -192 78c-72 72 -70 161 -70 284s-2 212 70 284c50 50 114 78 192 78c91 0 147 -32 198 -82l-92 -92c-31 31 -56 50 -106 50c-38 0 -68 -14 -88 -37c-27 -30 -35 -64 -35 -201s8 -171 35 -201c20 -23 50 -37 88 -37
c50 0 75 19 106 50zM447 951l-114 -170h-87l64 170h137z" />
    <glyph glyph-name="Ccircumflex.ss01" horiz-adv-x="562" 
d="M519 76c-51 -50 -107 -82 -198 -82c-78 0 -142 28 -192 78c-72 72 -70 161 -70 284s-2 212 70 284c50 50 114 78 192 78c91 0 147 -32 198 -82l-92 -92c-31 31 -56 50 -106 50c-38 0 -68 -14 -88 -37c-27 -30 -35 -64 -35 -201s8 -171 35 -201c20 -23 50 -37 88 -37
c50 0 75 19 106 50zM506 781h-101l-83 91l-83 -91h-101l132 169h104z" />
    <glyph glyph-name="Cdotaccent.ss01" horiz-adv-x="562" 
d="M520 76c-51 -50 -107 -82 -198 -82c-78 0 -142 28 -192 78c-72 72 -70 161 -70 284s-2 212 70 284c50 50 114 78 192 78c91 0 147 -32 198 -82l-92 -92c-31 31 -56 50 -106 50c-38 0 -68 -14 -88 -37c-27 -30 -35 -64 -35 -201s8 -171 35 -201c20 -23 50 -37 88 -37
c50 0 75 19 106 50zM400 847c0 -37 -30 -68 -67 -68s-67 31 -67 67c0 38 30 68 67 68s67 -30 67 -67z" />
    <glyph glyph-name="cdotaccent.ss01" horiz-adv-x="480" 
d="M452 65c-46 -48 -100 -71 -172 -71c-104 0 -233 56 -233 267s129 266 233 266c72 0 126 -22 172 -70l-88 -88c-27 29 -50 41 -84 41c-31 0 -55 -11 -74 -34c-20 -25 -29 -60 -29 -115s9 -91 29 -116c19 -23 43 -34 74 -34c34 0 57 12 84 41zM347 672
c0 -37 -31 -67 -67 -67c-38 0 -68 30 -68 67s30 67 67 67s68 -30 68 -67z" />
    <glyph glyph-name="Ccaron.ss01" horiz-adv-x="562" 
d="M519 76c-51 -50 -107 -82 -198 -82c-78 0 -142 28 -192 78c-72 72 -70 161 -70 284s-2 212 70 284c50 50 114 78 192 78c91 0 147 -32 198 -82l-92 -92c-31 31 -56 50 -106 50c-38 0 -68 -14 -88 -37c-27 -30 -35 -64 -35 -201s8 -171 35 -201c20 -23 50 -37 88 -37
c50 0 75 19 106 50zM506 950l-132 -169h-104l-132 169h101l83 -90l83 90h101z" />
    <glyph glyph-name="dcaron.ss01" horiz-adv-x="560" 
d="M488 0h-127v49c-36 -40 -74 -55 -129 -55c-51 0 -99 18 -128 47c-52 52 -53 142 -53 220s1 167 53 219c29 29 76 47 127 47c53 0 93 -14 127 -52v237h130v-712zM358 261c0 85 -11 149 -89 149s-88 -64 -88 -149s10 -150 88 -150s89 65 89 150zM690 629l-113 -88v206h113
v-118z" />
    <glyph glyph-name="Edotaccent.ss01" horiz-adv-x="605" 
d="M552 0h-469v712h469v-124h-330v-167h281v-124h-281v-173h330v-124zM373 847c0 -37 -30 -68 -67 -68s-67 31 -67 67c0 38 30 68 67 68s67 -30 67 -67z" />
    <glyph glyph-name="edotaccent.ss01" horiz-adv-x="548" 
d="M501 220h-326c0 -67 41 -116 114 -116c57 0 85 16 118 49l79 -77c-53 -53 -104 -82 -198 -82c-123 0 -241 56 -241 267c0 170 92 266 227 266c145 0 227 -106 227 -249v-58zM373 309c-1 23 -4 37 -12 56c-14 31 -43 54 -87 54s-73 -23 -87 -54c-8 -19 -11 -33 -12 -56
h198zM346 672c0 -37 -31 -67 -67 -67c-38 0 -68 30 -68 67s30 67 67 67s68 -30 68 -67z" />
    <glyph glyph-name="Eogonek.ss01" horiz-adv-x="605" 
d="M552 0h-469v712h469v-124h-330v-167h281v-124h-281v-173h330v-124zM532 -234c-69 0 -112 44 -112 101s43 101 112 101v-64c-24 0 -39 -17 -39 -37s15 -37 39 -37v-64z" />
    <glyph glyph-name="eogonek.ss01" horiz-adv-x="548" 
d="M501 220h-326c0 -67 41 -116 114 -116c57 0 85 16 118 49l79 -77c-53 -53 -104 -82 -198 -82c-123 0 -241 56 -241 267c0 170 92 266 227 266c145 0 227 -106 227 -249v-58zM373 309c-1 23 -4 37 -12 56c-14 31 -43 54 -87 54s-73 -23 -87 -54c-8 -19 -11 -33 -12 -56
h198zM450 -234c-69 0 -112 44 -112 101s43 101 112 101v-64c-24 0 -39 -17 -39 -37s15 -37 39 -37v-64z" />
    <glyph glyph-name="Gcircumflex.ss01" horiz-adv-x="637" 
d="M586 294c0 -103 -16 -166 -66 -218c-51 -53 -118 -82 -199 -82c-78 0 -142 28 -192 78c-72 72 -70 161 -70 284s-2 212 70 284c50 50 112 78 192 78c99 0 154 -27 218 -91l-94 -94c-40 40 -69 61 -124 61c-38 0 -69 -15 -89 -38c-27 -30 -34 -63 -34 -200s7 -171 34 -201
c20 -23 51 -37 89 -37c42 0 72 15 95 40s31 62 31 97v25h-126v116h265v-102zM505 781h-101l-83 91l-83 -91h-101l132 169h104z" />
    <glyph glyph-name="Gbreve.ss01" horiz-adv-x="637" 
d="M586 294c0 -103 -16 -166 -66 -218c-51 -53 -118 -82 -199 -82c-78 0 -142 28 -192 78c-72 72 -70 161 -70 284s-2 212 70 284c50 50 112 78 192 78c99 0 154 -27 218 -91l-94 -94c-40 40 -69 61 -124 61c-38 0 -69 -15 -89 -38c-27 -30 -34 -63 -34 -200s7 -171 34 -201
c20 -23 51 -37 89 -37c42 0 72 15 95 40s31 62 31 97v25h-126v116h265v-102zM485 930c-5 -108 -78 -151 -164 -151s-160 43 -164 151h87c5 -43 39 -60 77 -60s72 17 77 60h87z" />
    <glyph glyph-name="Gdotaccent.ss01" horiz-adv-x="637" 
d="M586 294c0 -103 -16 -166 -66 -218c-51 -53 -118 -82 -199 -82c-78 0 -142 28 -192 78c-72 72 -70 161 -70 284s-2 212 70 284c50 50 112 78 192 78c99 0 154 -27 218 -91l-94 -94c-40 40 -69 61 -124 61c-38 0 -69 -15 -89 -38c-27 -30 -34 -63 -34 -200s7 -171 34 -201
c20 -23 51 -37 89 -37c42 0 72 15 95 40s31 62 31 97v25h-126v116h265v-102zM399 847c0 -37 -30 -68 -67 -68s-67 31 -67 67c0 38 30 68 67 68s67 -30 67 -67z" />
    <glyph glyph-name="gdotaccent.ss01" horiz-adv-x="555" 
d="M482 19c0 -125 -89 -216 -229 -216c-80 0 -135 16 -189 68l81 82c29 -28 58 -40 102 -40c78 0 105 55 105 108v53c-34 -38 -73 -52 -124 -52s-95 17 -124 46c-49 49 -53 116 -53 207s4 157 53 206c29 29 74 46 125 46c55 0 91 -15 127 -55v49h126v-502zM352 275
c0 69 -9 135 -86 135s-85 -66 -85 -135s8 -136 85 -136s86 67 86 136zM322 672c0 -37 -31 -67 -67 -67c-38 0 -68 30 -68 67s30 67 67 67s68 -30 68 -67z" />
    <glyph glyph-name="Gcommaaccent.ss01" horiz-adv-x="637" 
d="M586 294c0 -103 -16 -166 -66 -218c-51 -53 -118 -82 -199 -82c-78 0 -142 28 -192 78c-72 72 -70 161 -70 284s-2 212 70 284c50 50 112 78 192 78c99 0 154 -27 218 -91l-94 -94c-40 40 -69 61 -124 61c-38 0 -69 -15 -89 -38c-27 -30 -34 -63 -34 -200s7 -171 34 -201
c20 -23 51 -37 89 -37c42 0 72 15 95 40s31 62 31 97v25h-126v116h265v-102zM372 -133c0 -57 -44 -101 -112 -101v64c24 0 39 17 39 37s-15 37 -39 37v64c69 0 112 -44 112 -101z" />
    <glyph glyph-name="gcommaaccent.ss01" horiz-adv-x="555" 
d="M482 19c0 -125 -89 -216 -229 -216c-80 0 -135 16 -189 68l81 82c29 -28 58 -40 102 -40c78 0 105 55 105 108v53c-34 -38 -73 -52 -124 -52s-95 17 -124 46c-49 49 -53 116 -53 207s4 157 53 206c29 29 74 46 125 46c55 0 91 -15 127 -55v49h126v-502zM352 275
c0 69 -9 135 -86 135s-85 -66 -85 -135s8 -136 85 -136s86 67 86 136zM333 579c-69 0 -112 45 -112 101c0 57 43 101 112 101v-64c-24 0 -39 -17 -39 -37c0 -19 15 -37 39 -37v-64z" />
    <glyph glyph-name="Iogonek.ss01" horiz-adv-x="305" 
d="M222 0h-139v712h139v-712zM212 -234c-69 0 -112 44 -112 101s43 101 112 101v-64c-24 0 -39 -17 -39 -37s15 -37 39 -37v-64z" />
    <glyph glyph-name="iogonek.ss01" horiz-adv-x="275" 
d="M203 0h-130v521h130v-521zM219 668c0 -45 -36 -82 -81 -82s-82 37 -82 82s37 81 82 81s81 -36 81 -81zM193 -234c-69 0 -112 44 -112 101s43 101 112 101v-64c-24 0 -39 -17 -39 -37s15 -37 39 -37v-64z" />
    <glyph glyph-name="Idotaccent.ss01" horiz-adv-x="305" 
d="M222 0h-139v712h139v-712zM221 847c0 -37 -30 -68 -67 -68s-67 31 -67 67c0 38 30 68 67 68s67 -30 67 -67z" />
    <glyph glyph-name="Kcommaaccent.ss01" horiz-adv-x="665" 
d="M659 0h-162l-183 324l-92 -110v-214h-139v712h139v-310l251 310h169l-236 -283zM399 -133c0 -57 -44 -101 -112 -101v64c24 0 39 17 39 37s-15 37 -39 37v64c69 0 112 -44 112 -101z" />
    <glyph glyph-name="kcommaaccent.ss01" horiz-adv-x="559" 
d="M547 0h-161l-128 217l-55 -62v-155h-130v712h130v-404l173 213h157l-186 -210zM344 -133c0 -57 -44 -101 -112 -101v64c24 0 39 17 39 37s-15 37 -39 37v64c69 0 112 -44 112 -101z" />
    <glyph glyph-name="Lcommaaccent.ss01" horiz-adv-x="575" 
d="M545 0h-462v712h139v-588h323v-124zM376 -133c0 -57 -44 -101 -112 -101v64c24 0 39 17 39 37s-15 37 -39 37v64c69 0 112 -44 112 -101z" />
    <glyph glyph-name="lcommaaccent.ss01" horiz-adv-x="325" 
d="M294 0h-74c-107 0 -152 75 -152 149v563h130v-555c0 -31 13 -47 46 -47h50v-110zM242 -133c0 -57 -44 -101 -112 -101v64c24 0 39 17 39 37s-15 37 -39 37v64c69 0 112 -44 112 -101z" />
    <glyph glyph-name="Lcaron.ss01" horiz-adv-x="575" 
d="M545 0h-462v712h139v-588h323v-124zM452 594l-113 -88v206h113v-118z" />
    <glyph glyph-name="lcaron.ss01" horiz-adv-x="325" 
d="M294 0h-74c-107 0 -152 75 -152 149v563h130v-555c0 -31 13 -47 46 -47h50v-110zM401 629l-113 -88v206h113v-118z" />
    <glyph glyph-name="Ncommaaccent.ss01" horiz-adv-x="711" 
d="M628 0h-124l-282 437v-437h-139v712h124l282 -436v436h139v-712zM405 -133c0 -57 -44 -101 -112 -101v64c24 0 39 17 39 37s-15 37 -39 37v64c69 0 112 -44 112 -101z" />
    <glyph glyph-name="ncommaaccent.ss01" horiz-adv-x="573" 
d="M506 0h-130v315c0 71 -45 95 -86 95s-87 -24 -87 -95v-315h-130v521h127v-48c34 36 82 54 130 54c52 0 94 -17 123 -46c42 -42 53 -91 53 -148v-333zM352 -133c0 -57 -44 -101 -112 -101v64c24 0 39 17 39 37s-15 37 -39 37v64c69 0 112 -44 112 -101z" />
    <glyph glyph-name="Rcommaaccent.ss01" horiz-adv-x="654" 
d="M622 0h-161l-139 284h-100v-284h-139v712h279c145 0 231 -99 231 -218c0 -100 -61 -162 -130 -187zM454 494c0 55 -40 94 -101 94h-131v-188h131c61 0 101 39 101 94zM382 -133c0 -57 -44 -101 -112 -101v64c24 0 39 17 39 37s-15 37 -39 37v64c69 0 112 -44 112 -101z
" />
    <glyph glyph-name="rcommaaccent.ss01" horiz-adv-x="455" 
d="M454 478l-98 -99c-20 20 -37 31 -69 31c-40 0 -84 -30 -84 -96v-314h-130v521h127v-50c25 30 75 56 131 56c51 0 87 -13 123 -49zM206 -133c0 -57 -44 -101 -112 -101v64c24 0 39 17 39 37s-15 37 -39 37v64c69 0 112 -44 112 -101z" />
    <glyph glyph-name="Scedilla.ss01" horiz-adv-x="591" 
d="M543 210c0 -138 -115 -216 -264 -216c-108 0 -190 23 -260 94l90 90c45 -45 106 -60 172 -60c82 0 126 31 126 88c0 25 -7 46 -22 60c-14 13 -30 20 -63 25l-86 12c-61 9 -106 28 -138 59c-34 34 -51 80 -51 140c0 127 94 216 248 216c98 0 169 -24 230 -83l-88 -87
c-45 43 -99 49 -146 49c-74 0 -110 -41 -110 -90c0 -18 6 -37 21 -51c14 -13 37 -24 66 -28l84 -12c65 -9 106 -27 136 -55c38 -36 55 -88 55 -151zM358 -133c0 -57 -44 -101 -112 -101v64c24 0 39 17 39 37s-15 37 -39 37v64c69 0 112 -44 112 -101z" />
    <glyph glyph-name="scedilla.ss01" horiz-adv-x="501" 
d="M465 164c0 -115 -98 -170 -221 -170c-82 0 -156 9 -222 75l85 85c43 -43 99 -49 139 -49c45 0 92 15 92 54c0 26 -14 44 -55 48l-82 8c-94 9 -152 50 -152 146c0 108 95 166 201 166c81 0 149 -14 199 -61l-80 -81c-30 27 -76 35 -121 35c-52 0 -74 -24 -74 -50
c0 -19 8 -41 54 -45l82 -8c103 -10 155 -65 155 -153zM319 -133c0 -57 -44 -101 -112 -101v64c24 0 39 17 39 37s-15 37 -39 37v64c69 0 112 -44 112 -101z" />
    <glyph glyph-name="Tcommaaccent.ss01" horiz-adv-x="571" 
d="M541 588h-186v-588h-139v588h-186v124h511v-124zM337 -133c0 -57 -44 -101 -112 -101v64c24 0 39 17 39 37s-15 37 -39 37v64c69 0 112 -44 112 -101z" />
    <glyph glyph-name="tcommaaccent.ss01" horiz-adv-x="352" 
d="M307 0h-71c-106 0 -151 75 -151 149v258h-55v99h55v154h130v-154h92v-99h-92v-250c0 -30 14 -47 45 -47h47v-110zM248 -133c0 -57 -44 -101 -112 -101v64c24 0 39 17 39 37s-15 37 -39 37v64c69 0 112 -44 112 -101z" />
    <glyph glyph-name="tcaron.ss01" horiz-adv-x="352" 
d="M307 0h-71c-106 0 -151 75 -151 149v258h-55v99h55v154h130v-154h92v-99h-92v-250c0 -30 14 -47 45 -47h47v-110zM407 629l-113 -88v206h113v-118z" />
    <glyph glyph-name="Uogonek.ss01" horiz-adv-x="668" 
d="M596 244c0 -151 -116 -250 -262 -250s-262 99 -262 250v468h139v-463c0 -82 48 -131 123 -131s124 49 124 131v463h138v-468zM543 -234c-69 0 -112 44 -112 101s43 101 112 101v-64c-24 0 -39 -17 -39 -37s15 -37 39 -37v-64z" />
    <glyph glyph-name="uogonek.ss01" horiz-adv-x="573" 
d="M500 0h-127v48c-34 -36 -82 -54 -130 -54c-52 0 -94 17 -123 46c-42 42 -53 91 -53 148v333h130v-315c0 -71 45 -95 86 -95s87 24 87 95v315h130v-521zM486 -234c-69 0 -112 44 -112 101s43 101 112 101v-64c-24 0 -39 -17 -39 -37s15 -37 39 -37v-64z" />
    <glyph glyph-name="Ydieresis.ss01" horiz-adv-x="572" 
d="M569 712l-214 -420v-292h-138v292l-214 420h151l133 -287l131 287h151zM465 844c0 -37 -30 -67 -67 -67s-67 30 -67 67s30 67 67 67s67 -30 67 -67zM239 844c0 -37 -30 -67 -67 -67s-67 30 -67 67s30 67 67 67s67 -30 67 -67z" />
    <glyph glyph-name="Zdotaccent.ss01" horiz-adv-x="548" 
d="M508 0h-468v112l304 476h-291v124h455v-110l-305 -478h305v-124zM337 847c0 -37 -30 -68 -67 -68s-67 31 -67 67c0 38 30 68 67 68s67 -30 67 -67z" />
    <glyph glyph-name="zdotaccent.ss01" horiz-adv-x="478" 
d="M434 0h-397v99l231 305h-218v117h384v-99l-234 -305h234v-117zM305 672c0 -37 -31 -67 -67 -67c-38 0 -68 30 -68 67s30 67 67 67s68 -30 68 -67z" />
    <glyph glyph-name="Scommaaccent.ss01" horiz-adv-x="591" 
d="M543 210c0 -138 -115 -216 -264 -216c-108 0 -190 23 -260 94l90 90c45 -45 106 -60 172 -60c82 0 126 31 126 88c0 25 -7 46 -22 60c-14 13 -30 20 -63 25l-86 12c-61 9 -106 28 -138 59c-34 34 -51 80 -51 140c0 127 94 216 248 216c98 0 169 -24 230 -83l-88 -87
c-45 43 -99 49 -146 49c-74 0 -110 -41 -110 -90c0 -18 6 -37 21 -51c14 -13 37 -24 66 -28l84 -12c65 -9 106 -27 136 -55c38 -36 55 -88 55 -151zM358 -133c0 -57 -44 -101 -112 -101v64c24 0 39 17 39 37s-15 37 -39 37v64c69 0 112 -44 112 -101z" />
    <glyph glyph-name="scommaaccent.ss01" horiz-adv-x="501" 
d="M465 164c0 -115 -98 -170 -221 -170c-82 0 -156 9 -222 75l85 85c43 -43 99 -49 139 -49c45 0 92 15 92 54c0 26 -14 44 -55 48l-82 8c-94 9 -152 50 -152 146c0 108 95 166 201 166c81 0 149 -14 199 -61l-80 -81c-30 27 -76 35 -121 35c-52 0 -74 -24 -74 -50
c0 -19 8 -41 54 -45l82 -8c103 -10 155 -65 155 -153zM319 -133c0 -57 -44 -101 -112 -101v64c24 0 39 17 39 37s-15 37 -39 37v64c69 0 112 -44 112 -101z" />
    <glyph glyph-name="uni021A.ss01" horiz-adv-x="571" 
d="M541 588h-186v-588h-139v588h-186v124h511v-124zM337 -133c0 -57 -44 -101 -112 -101v64c24 0 39 17 39 37s-15 37 -39 37v64c69 0 112 -44 112 -101z" />
    <glyph glyph-name="uni021B.ss01" horiz-adv-x="352" 
d="M307 0h-71c-106 0 -151 75 -151 149v258h-55v99h55v154h130v-154h92v-99h-92v-250c0 -30 14 -47 45 -47h47v-110zM248 -133c0 -57 -44 -101 -112 -101v64c24 0 39 17 39 37s-15 37 -39 37v64c69 0 112 -44 112 -101z" />
    <glyph glyph-name="dotaccent.ss01" horiz-adv-x="500" 
d="M331 687c0 -45 -36 -81 -81 -81s-81 36 -81 81s36 81 81 81s81 -36 81 -81z" />
    <glyph glyph-name="ogonek.ss01" horiz-adv-x="500" 
d="M450 -234c-69 0 -112 44 -112 101s43 101 112 101v-64c-24 0 -39 -17 -39 -37s15 -37 39 -37v-64z" />
    <glyph glyph-name="tonos.ss01" horiz-adv-x="500" 
d="M396 774l-114 -170h-87l64 170h137z" />
    <glyph glyph-name="dieresistonos.ss01" horiz-adv-x="510" 
d="M480 657c0 -37 -30 -67 -67 -67s-67 30 -67 67s30 67 67 67s67 -30 67 -67zM381 774l-114 -170h-87l64 170h137zM164 657c0 -37 -30 -67 -67 -67s-67 30 -67 67s30 67 67 67s67 -30 67 -67z" />
    <glyph glyph-name="Alphatonos.ss01" horiz-adv-x="638" 
d="M633 0h-145l-42 126h-253l-43 -126h-145l259 712h109zM409 243l-87 259l-90 -259h177zM143 712l-114 -170h-87l64 170h137z" />
    <glyph glyph-name="anoteleia.ss01" horiz-adv-x="295" 
d="M235 284c0 -48 -40 -87 -88 -87s-87 39 -87 87s39 88 87 88s88 -40 88 -88z" />
    <glyph glyph-name="Epsilontonos.ss01" horiz-adv-x="605" 
d="M552 0h-469v712h469v-124h-330v-167h281v-124h-281v-173h330v-124zM43 711l-114 -170h-87l64 170h137z" />
    <glyph glyph-name="Etatonos.ss01" horiz-adv-x="685" 
d="M602 0h-139v298h-241v-298h-139v712h139v-291h241v291h139v-712zM43 712l-114 -170h-87l64 170h137z" />
    <glyph glyph-name="Iotatonos.ss01" horiz-adv-x="305" 
d="M222 0h-139v712h139v-712zM43 712l-114 -170h-87l64 170h137z" />
    <glyph glyph-name="Omicrontonos.ss01" horiz-adv-x="644" 
d="M585 356c0 -123 1 -212 -71 -284c-50 -50 -111 -78 -192 -78s-143 28 -193 78c-72 72 -70 161 -70 284s-2 212 70 284c50 50 112 78 193 78s142 -28 192 -78c72 -72 71 -161 71 -284zM446 356c0 137 -8 170 -35 200c-20 23 -51 38 -89 38s-70 -15 -90 -38
c-27 -30 -34 -63 -34 -200s7 -170 34 -200c20 -23 52 -38 90 -38s69 15 89 38c27 30 35 63 35 200zM72 712l-114 -170h-87l64 170h137z" />
    <glyph glyph-name="Upsilontonos.ss01" horiz-adv-x="572" 
d="M569 712l-214 -420v-292h-138v292l-214 420h151l133 -287l131 287h151zM-7 712l-114 -170h-87l64 170h137z" />
    <glyph glyph-name="Omegatonos.ss01" horiz-adv-x="644" 
d="M585 0h-219v109c24 11 41 25 54 44c18 27 26 73 26 196c0 137 -9 176 -35 206c-20 23 -51 39 -89 39s-70 -16 -90 -39c-26 -30 -34 -69 -34 -206c0 -123 8 -169 26 -196c13 -19 30 -33 54 -44v-109h-219v123h59c-17 18 -28 36 -36 55c-20 49 -23 112 -23 178
c0 123 -2 212 70 284c50 50 112 78 193 78s142 -28 192 -78c72 -72 71 -161 71 -284c0 -66 -3 -129 -23 -178c-8 -19 -19 -37 -36 -55h59v-123zM73 712l-114 -170h-87l64 170h137z" />
    <glyph glyph-name="iotadieresistonos.ss01" horiz-adv-x="325" 
d="M294 0h-74c-107 0 -152 75 -152 149v372h130v-364c0 -31 13 -47 46 -47h50v-110zM380 657c0 -37 -30 -67 -67 -67s-67 30 -67 67s30 67 67 67s67 -30 67 -67zM281 774l-114 -170h-87l64 170h137zM64 657c0 -37 -30 -67 -67 -67s-67 30 -67 67s30 67 67 67s67 -30 67 -67z
" />
    <glyph glyph-name="Xi.ss01" horiz-adv-x="572" 
d="M519 588h-466v124h466v-124zM471 297h-370v124h370v-124zM519 0h-466v124h466v-124z" />
    <glyph glyph-name="Iotadieresis.ss01" horiz-adv-x="305" 
d="M222 0h-139v712h139v-712zM336 844c0 -37 -30 -67 -67 -67s-67 30 -67 67s30 67 67 67s67 -30 67 -67zM110 844c0 -37 -30 -67 -67 -67s-67 30 -67 67s30 67 67 67s67 -30 67 -67z" />
    <glyph glyph-name="Upsilondieresis.ss01" horiz-adv-x="572" 
d="M569 712l-214 -420v-292h-138v292l-214 420h151l133 -287l131 287h151zM465 844c0 -37 -30 -67 -67 -67s-67 30 -67 67s30 67 67 67s67 -30 67 -67zM239 844c0 -37 -30 -67 -67 -67s-67 30 -67 67s30 67 67 67s67 -30 67 -67z" />
    <glyph glyph-name="alphatonos.ss01" horiz-adv-x="561" 
d="M488 0h-127v49c-36 -40 -74 -55 -129 -55c-51 0 -99 18 -128 47c-52 52 -53 142 -53 220s1 167 53 219c29 29 76 47 127 47c55 0 94 -15 129 -54v48h128v-521zM358 261c0 84 -10 149 -88 149s-89 -65 -89 -149s11 -150 89 -150s88 66 88 150zM416 774l-114 -170h-87
l64 170h137z" />
    <glyph glyph-name="epsilontonos.ss01" horiz-adv-x="510" 
d="M490 85c-75 -71 -134 -90 -232 -90c-105 0 -213 44 -213 156c0 70 45 104 77 119c-27 13 -63 48 -63 107c0 94 97 150 205 150c80 0 128 -15 200 -72l-73 -88c-43 34 -73 52 -121 52s-82 -22 -82 -56c0 -28 26 -49 65 -49h98v-99h-99c-58 0 -75 -29 -75 -51
c0 -35 40 -59 92 -59c55 0 94 20 137 58zM416 774l-114 -170h-87l64 170h137z" />
    <glyph glyph-name="etatonos.ss01" horiz-adv-x="573" 
d="M506 0h-130v315c0 71 -45 95 -86 95s-87 -24 -87 -95v-315h-130v521h127v-48c34 36 82 54 130 54c52 0 94 -17 123 -46c42 -42 53 -91 53 -148v-333zM436 774l-114 -170h-87l64 170h137z" />
    <glyph glyph-name="iotatonos.ss01" horiz-adv-x="325" 
d="M294 0h-74c-107 0 -152 75 -152 149v372h130v-364c0 -31 13 -47 46 -47h50v-110zM286 774l-114 -170h-87l64 170h137z" />
    <glyph glyph-name="upsilondieresistonos.ss01" horiz-adv-x="550" 
d="M492 264c0 -86 -7 -152 -59 -206c-36 -37 -85 -64 -158 -64s-122 27 -158 64c-52 54 -59 120 -59 206v257h131v-282c0 -40 3 -81 29 -104c18 -17 35 -24 57 -24s39 7 57 24c26 23 30 64 30 104v282h130v-257zM495 657c0 -37 -30 -67 -67 -67s-67 30 -67 67s30 67 67 67
s67 -30 67 -67zM396 774l-114 -170h-87l64 170h137zM179 657c0 -37 -30 -67 -67 -67s-67 30 -67 67s30 67 67 67s67 -30 67 -67z" />
    <glyph glyph-name="pi.ss01" horiz-adv-x="592" 
d="M515 0h-129v399h-180v-399h-130v521h439v-521z" />
    <glyph glyph-name="phi.ss01" horiz-adv-x="707" 
d="M656 261c0 -148 -58 -265 -238 -267v-185h-130v185c-179 2 -237 120 -237 267s58 264 237 266v185h130v-185c179 -2 238 -119 238 -266zM526 261c0 66 -17 146 -108 149v-299c91 3 108 84 108 150zM288 111v299c-89 -3 -107 -84 -107 -149s17 -147 107 -150z" />
    <glyph glyph-name="psi.ss01" horiz-adv-x="700" 
d="M642 261c0 -94 -13 -155 -56 -202c-33 -37 -88 -62 -170 -62v-188h-131v188c-82 0 -137 25 -170 62c-43 47 -57 108 -57 202v260h131v-284c0 -75 28 -126 96 -126v601h131v-601c69 0 95 48 95 126v284h131v-260z" />
    <glyph glyph-name="iotadieresis.ss01" horiz-adv-x="325" 
d="M294 0h-74c-107 0 -152 75 -152 149v372h130v-364c0 -31 13 -47 46 -47h50v-110zM319 667c0 -37 -30 -67 -67 -67s-67 30 -67 67s30 67 67 67s67 -30 67 -67zM93 667c0 -37 -30 -67 -67 -67s-67 30 -67 67s30 67 67 67s67 -30 67 -67z" />
    <glyph glyph-name="upsilondieresis.ss01" horiz-adv-x="550" 
d="M492 264c0 -86 -7 -152 -59 -206c-36 -37 -85 -64 -158 -64s-122 27 -158 64c-52 54 -59 120 -59 206v257h131v-282c0 -40 3 -81 29 -104c18 -17 35 -24 57 -24s39 7 57 24c26 23 30 64 30 104v282h130v-257zM448 667c0 -37 -30 -67 -67 -67s-67 30 -67 67s30 67 67 67
s67 -30 67 -67zM222 667c0 -37 -30 -67 -67 -67s-67 30 -67 67s30 67 67 67s67 -30 67 -67z" />
    <glyph glyph-name="omicrontonos.ss01" 
d="M492 261c0 -95 -12 -154 -59 -203c-32 -34 -85 -64 -162 -64s-129 30 -161 64c-47 49 -59 108 -59 203c0 94 12 153 59 202c32 34 84 64 161 64s130 -30 162 -64c47 -49 59 -108 59 -202zM362 261c0 54 -3 99 -30 126c-15 15 -35 23 -61 23s-45 -8 -60 -23
c-27 -27 -30 -72 -30 -126s3 -100 30 -127c15 -15 34 -23 60 -23s46 8 61 23c27 27 30 73 30 127zM416 774l-114 -170h-87l64 170h137z" />
    <glyph glyph-name="upsilontonos.ss01" horiz-adv-x="550" 
d="M492 264c0 -86 -7 -152 -59 -206c-36 -37 -85 -64 -158 -64s-122 27 -158 64c-52 54 -59 120 -59 206v257h131v-282c0 -40 3 -81 29 -104c18 -17 35 -24 57 -24s39 7 57 24c26 23 30 64 30 104v282h130v-257zM426 774l-114 -170h-87l64 170h137z" />
    <glyph glyph-name="omegatonos.ss01" horiz-adv-x="759" 
d="M708 261c0 -81 -8 -140 -43 -190c-30 -42 -80 -77 -151 -77c-73 0 -109 31 -135 71c-26 -40 -62 -71 -135 -71c-71 0 -120 35 -150 77c-35 50 -43 109 -43 190c0 84 14 153 56 199c30 32 78 67 161 67v-118c-28 0 -49 -13 -62 -29c-20 -24 -25 -52 -25 -119
c0 -42 2 -90 22 -121c11 -16 26 -28 49 -28c29 0 47 23 55 51c6 22 7 46 7 64v142h130v-142c0 -18 0 -43 6 -64c8 -29 26 -51 56 -51c23 0 38 12 49 28c20 31 22 79 22 121c0 67 -4 95 -24 119c-13 16 -35 29 -63 29v118c83 0 131 -35 161 -67c42 -46 57 -115 57 -199z
M526 774l-114 -170h-87l64 170h137z" />
    <glyph glyph-name="beta1.ss01" horiz-adv-x="579" 
d="M531 218c0 -59 -16 -126 -58 -169c-32 -32 -79 -55 -140 -55c-66 0 -110 29 -134 55v-49h-126v520c0 126 95 195 221 195c123 0 213 -63 213 -180c0 -38 -9 -77 -29 -103c-16 -20 -33 -33 -52 -41c23 -8 46 -21 63 -40c28 -32 42 -74 42 -133zM402 228
c0 55 -20 78 -44 89c-20 9 -40 13 -72 13h-51v103h61c73 0 87 50 87 88c0 26 -10 47 -21 59c-15 16 -37 25 -65 25c-67 0 -93 -40 -93 -99v-295c0 -60 39 -101 93 -101c30 0 51 6 69 21c27 23 36 63 36 97z" />
    <glyph glyph-name="afii10023.ss01" horiz-adv-x="605" 
d="M552 0h-469v712h469v-124h-330v-167h281v-124h-281v-173h330v-124zM490 844c0 -37 -30 -67 -67 -67s-67 30 -67 67s30 67 67 67s67 -30 67 -67zM264 844c0 -37 -30 -67 -67 -67s-67 30 -67 67s30 67 67 67s67 -30 67 -67z" />
    <glyph glyph-name="afii10053.ss01" horiz-adv-x="562" 
d="M519 76c-59 -56 -113 -82 -196 -82c-77 0 -144 27 -194 78c-70 71 -70 165 -70 284v29c0 142 15 199 70 255c50 51 116 78 193 78c83 0 137 -25 197 -82l-92 -92c-39 38 -64 50 -105 50c-106 0 -122 -89 -124 -176h210v-121h-210c2 -88 15 -179 124 -179
c42 0 66 12 105 50z" />
    <glyph glyph-name="afii10056.ss01" horiz-adv-x="305" 
d="M222 0h-139v712h139v-712zM333 844c0 -37 -30 -67 -67 -67s-67 30 -67 67s30 67 67 67s67 -30 67 -67zM107 844c0 -37 -30 -67 -67 -67s-67 30 -67 67s30 67 67 67s67 -30 67 -67z" />
    <glyph glyph-name="afii10058.ss01" horiz-adv-x="1008" 
d="M732 319h-130v-195h130c63 0 103 39 103 98c0 58 -40 97 -103 97zM167 712h435v-268h141c139 0 231 -92 231 -222s-93 -222 -231 -222h-280v588h-162c0 -504 -64 -588 -236 -588h-48v124h20c85 0 130 40 130 588z" />
    <glyph glyph-name="afii10061.ss01" horiz-adv-x="674" 
d="M527 542l-37 -91c-14 -34 -38 -61 -68 -79c42 -14 70 -45 87 -89l43 -109c14 -35 20 -50 63 -50h29v-124h-63c-51 0 -89 13 -118 48c-17 21 -30 49 -41 76l-42 108c-22 56 -63 65 -101 65h-58v-297h-138v712h138v-291h65c41 0 59 24 77 57l47 109c13 32 25 58 41 77
c30 35 66 48 116 48h50v-122h-27c-38 0 -50 -9 -63 -48zM487 951l-114 -170h-87l64 170h137z" />
    <glyph glyph-name="afii10021.ss01" horiz-adv-x="705" 
d="M677 -158h-134v158h-394v-158h-135v282h69c56 125 83 259 83 588h429v-588h82v-282zM456 124v464h-158c0 -235 -27 -362 -70 -464h228z" />
    <glyph glyph-name="afii10024.ss01" horiz-adv-x="978" 
d="M558 0h-138v297h-25c-38 0 -79 -9 -101 -65l-42 -108c-11 -27 -24 -55 -41 -76c-29 -35 -67 -48 -118 -48h-63v124h29c43 0 49 15 63 50l43 109c17 44 45 75 87 89c-30 18 -54 45 -68 79l-37 91c-13 39 -25 48 -63 48h-27v122h50c50 0 86 -13 116 -48
c16 -19 28 -45 41 -77l47 -109c18 -33 36 -57 77 -57h32v291h138v-291h32c41 0 59 24 77 57l47 109c13 32 25 58 41 77c30 35 66 48 116 48h50v-122h-27c-38 0 -50 -9 -63 -48l-37 -91c-14 -34 -38 -61 -68 -79c42 -14 70 -45 87 -89l43 -109c14 -35 20 -50 63 -50h29v-124
h-63c-51 0 -89 13 -118 48c-17 21 -30 49 -41 76l-42 108c-22 56 -63 65 -101 65h-25v-297z" />
    <glyph glyph-name="afii10025.ss01" horiz-adv-x="589" 
d="M530 206c0 -129 -108 -212 -247 -212c-105 0 -187 20 -265 94l89 90c48 -43 107 -60 171 -60c61 0 113 34 113 91c0 62 -44 98 -108 98h-89v114h90c61 0 97 33 97 90c0 55 -47 85 -102 85c-57 0 -108 -12 -150 -49l-86 88c68 60 150 83 242 83c130 0 235 -77 235 -197
c0 -69 -36 -123 -93 -153c63 -28 103 -84 103 -162z" />
    <glyph glyph-name="afii10028.ss01" horiz-adv-x="674" 
d="M527 542l-37 -91c-14 -34 -38 -61 -68 -79c42 -14 70 -45 87 -89l43 -109c14 -35 20 -50 63 -50h29v-124h-63c-51 0 -89 13 -118 48c-17 21 -30 49 -41 76l-42 108c-22 56 -63 65 -101 65h-58v-297h-138v712h138v-291h65c41 0 59 24 77 57l47 109c13 32 25 58 41 77
c30 35 66 48 116 48h50v-122h-27c-38 0 -50 -9 -63 -48z" />
    <glyph glyph-name="afii10029.ss01" horiz-adv-x="686" 
d="M602 0h-139v588h-162c0 -504 -64 -588 -236 -588h-48v124h20c85 0 130 40 130 588h435v-712z" />
    <glyph glyph-name="afii10035.ss01" horiz-adv-x="562" 
d="M519 76c-39 -37 -58 -49 -92 -63c-30 -12 -66 -19 -104 -19c-77 0 -144 27 -194 78c-70 71 -70 165 -70 284v29c0 142 15 199 70 255c50 51 116 78 193 78c39 0 74 -6 105 -19c34 -14 53 -26 92 -63l-92 -92c-39 38 -64 50 -105 50c-37 0 -67 -12 -89 -37
c-35 -39 -35 -113 -35 -181v-38c0 -113 7 -152 35 -183c22 -25 51 -37 89 -37c42 0 66 12 105 50z" />
    <glyph glyph-name="afii10047.ss01" horiz-adv-x="562" 
d="M249 718c86 0 184 -46 224 -134c20 -44 29 -104 29 -163v-100c0 -80 -1 -179 -70 -249c-27 -28 -60 -49 -97 -62c-29 -11 -62 -16 -97 -16c-84 0 -135 25 -196 82l87 89c23 -23 78 -47 110 -47c37 0 67 13 89 37c29 32 33 81 35 142h-207v121h206c-2 67 -10 90 -20 113
c-16 39 -57 63 -103 63c-44 0 -71 -13 -108 -49l-87 93c59 55 106 80 205 80z" />
    <glyph glyph-name="afii10049.ss01" horiz-adv-x="651" 
d="M430 283h-52c-34 0 -64 -12 -86 -65c-13 -30 -25 -60 -37 -90c-29 -75 -75 -128 -160 -128h-58v124h25c38 0 49 7 64 44l31 77c9 23 28 50 51 66c-78 10 -149 79 -149 183c0 122 88 218 231 218h278v-712h-138v283zM197 493c0 -56 39 -96 100 -96h133v191h-133
c-61 0 -100 -40 -100 -95z" />
    <glyph glyph-name="afii10066.ss01" horiz-adv-x="548" 
d="M284 -6c-63 0 -121 21 -158 59c-18 19 -33 42 -42 72c-13 41 -18 95 -19 158v60c0 109 4 210 74 274c51 48 127 59 186 66c22 3 41 9 42 32h109c0 -79 -27 -121 -87 -137c-16 -3 -34 -6 -53 -8c-50 -5 -100 -12 -134 -45c-27 -25 -35 -67 -35 -95c22 37 73 65 136 65
c146 0 195 -95 195 -245c0 -103 -20 -153 -60 -196c-38 -39 -91 -60 -154 -60zM282 110c24 0 44 7 59 23c19 20 27 53 27 118c0 63 -8 95 -27 115c-15 15 -36 22 -59 22s-44 -7 -59 -22c-19 -19 -27 -52 -27 -114c0 -66 9 -98 27 -118c16 -16 35 -24 59 -24z" />
    <glyph glyph-name="afii10069.ss01" horiz-adv-x="580" 
d="M13 115h57c34 93 50 183 50 406h371v-406h66v-243h-123v128h-298v-128h-123v243zM203 115h158v291h-117c0 -137 -18 -223 -41 -291z" />
    <glyph glyph-name="afii10072.ss01" horiz-adv-x="785" 
d="M457 0h-129v211h-8c-33 0 -63 -5 -80 -48l-28 -73c-28 -72 -65 -90 -140 -90h-42v115h23c24 0 36 8 45 31l24 62c14 36 32 54 64 65c-23 8 -40 24 -49 50l-16 49c-10 30 -20 37 -51 37h-19v112h47c67 0 104 -26 125 -87l24 -69c10 -28 35 -48 62 -48h19v204h129v-204h19
c27 0 52 20 62 48l24 69c21 61 58 87 125 87h47v-112h-19c-31 0 -41 -7 -51 -37l-16 -49c-9 -26 -26 -42 -49 -50c32 -11 50 -29 64 -65l24 -62c9 -23 21 -31 45 -31h23v-115h-42c-75 0 -112 18 -140 90l-28 73c-17 43 -47 48 -80 48h-8v-211z" />
    <glyph glyph-name="afii10076.ss01" horiz-adv-x="550" 
d="M228 211h-25v-211h-130v521h130v-202h38c27 0 52 18 62 46l24 69c21 61 58 87 125 87h47v-112h-19c-31 0 -41 -7 -51 -37l-16 -49c-9 -26 -26 -42 -49 -50c32 -11 50 -29 64 -65l24 -62c9 -23 21 -31 45 -31h23v-115h-42c-75 0 -114 18 -142 90l-28 73
c-17 43 -47 48 -80 48z" />
    <glyph glyph-name="afii10077.ss01" horiz-adv-x="571" 
d="M498 0h-130v406h-122c0 -347 -61 -406 -186 -406h-48v110h16c62 0 94 22 94 411h376v-521z" />
    <glyph glyph-name="afii10086.ss01" horiz-adv-x="844" 
d="M793 261c0 -78 -1 -168 -53 -220c-29 -29 -76 -47 -127 -47c-53 0 -92 14 -126 52v-237h-130v237c-34 -38 -73 -52 -126 -52c-51 0 -98 18 -127 47c-52 52 -53 142 -53 220s1 167 53 219c29 29 76 47 127 47c53 0 92 -14 126 -52v237h130v-237c34 38 73 52 126 52
c51 0 98 -18 127 -47c52 -52 53 -141 53 -219zM663 261c0 85 -10 149 -88 149s-88 -64 -88 -149s10 -150 88 -150s88 65 88 150zM357 261c0 85 -10 149 -88 149s-88 -64 -88 -149s10 -150 88 -150s88 65 88 150z" />
    <glyph glyph-name="afii10097.ss01" horiz-adv-x="535" 
d="M333 0v199h-15c-54 0 -64 -12 -80 -51l-24 -58c-24 -60 -56 -90 -126 -90h-58v115h23c24 0 42 4 51 27l15 37c7 16 17 34 33 45c-62 10 -108 66 -108 135c0 90 66 162 176 162h243v-521h-130zM335 293v124h-96c-44 0 -68 -26 -68 -63c0 -36 24 -61 68 -61h96z" />
    <glyph glyph-name="afii10071.ss01" horiz-adv-x="548" 
d="M501 220h-326c4 -78 43 -116 119 -116c21 0 43 4 60 11c19 8 30 16 53 38l79 -77c-39 -37 -57 -49 -90 -63c-30 -12 -66 -19 -107 -19c-160 0 -242 91 -242 268c0 163 87 265 227 265c138 0 227 -98 227 -249v-58zM373 309c-4 71 -39 110 -99 110s-96 -40 -99 -110h198z
M457 667c0 -37 -30 -67 -67 -67s-67 30 -67 67s30 67 67 67s67 -30 67 -67zM231 667c0 -37 -30 -67 -67 -67s-67 30 -67 67s30 67 67 67s67 -30 67 -67z" />
    <glyph glyph-name="afii10103.ss01" horiz-adv-x="275" 
d="M203 0h-130v521h130v-521zM219 668c0 -45 -36 -82 -81 -82s-82 37 -82 82s37 81 82 81s81 -36 81 -81z" />
    <glyph glyph-name="afii10104.ss01" horiz-adv-x="275" 
d="M203 0h-130v521h130v-521zM318 667c0 -37 -30 -67 -67 -67s-67 30 -67 67s30 67 67 67s67 -30 67 -67zM92 667c0 -37 -30 -67 -67 -67s-67 30 -67 67s30 67 67 67s67 -30 67 -67z" />
    <glyph glyph-name="afii10105.ss01" horiz-adv-x="275" 
d="M203 -46c0 -74 -45 -149 -152 -149h-74v110h50c33 0 46 16 46 47v559h130v-567zM219 668c0 -45 -36 -82 -81 -82s-82 37 -82 82s37 81 82 81s81 -36 81 -81z" />
    <glyph glyph-name="afii10106.ss01" horiz-adv-x="824" 
d="M664 167c0 39 -27 64 -69 64h-100v-129h100c42 0 69 25 69 65zM122 521h376v-188h121c103 0 174 -68 174 -166s-71 -167 -174 -167h-251v406h-122c0 -347 -61 -406 -186 -406h-48v110h16c62 0 94 22 94 411z" />
    <glyph glyph-name="afii10109.ss01" horiz-adv-x="550" 
d="M228 211h-25v-211h-130v521h130v-202h38c27 0 52 18 62 46l24 69c21 61 58 87 125 87h47v-112h-19c-31 0 -41 -7 -51 -37l-16 -49c-9 -26 -26 -42 -49 -50c32 -11 50 -29 64 -65l24 -62c9 -23 21 -31 45 -31h23v-115h-42c-75 0 -114 18 -142 90l-28 73
c-17 43 -47 48 -80 48zM426 774l-114 -170h-87l64 170h137z" />
    <glyph glyph-name="ellipsis.ss01" horiz-adv-x="846" 
d="M235 84c0 -48 -40 -87 -88 -87s-87 39 -87 87s39 87 87 87s88 -39 88 -87zM786 84c0 -48 -39 -87 -87 -87s-87 39 -87 87s39 87 87 87s87 -39 87 -87zM510 84c0 -48 -39 -87 -87 -87s-87 39 -87 87s39 87 87 87s87 -39 87 -87z" />
    <glyph glyph-name="Euro.ss01" horiz-adv-x="611" 
d="M569 76c-51 -50 -107 -82 -198 -82c-78 0 -141 27 -192 78c-46 46 -61 98 -67 165h-73v83h69v75h-69v83h73c6 66 22 117 67 162c51 51 114 78 192 78c91 0 147 -32 198 -82l-92 -92c-31 30 -56 50 -106 50c-38 0 -68 -15 -88 -37c-17 -19 -25 -39 -29 -79h148v-83h-154
v-75h154v-83h-149c4 -43 13 -63 30 -82c20 -22 50 -37 88 -37c50 0 75 20 106 50z" />
    <glyph glyph-name="uni2219.ss01" horiz-adv-x="295" 
d="M235 284c0 -48 -40 -87 -88 -87s-87 39 -87 87s39 88 87 88s88 -40 88 -88z" />
    <glyph glyph-name="uni2224.ss01" horiz-adv-x="295" 
d="M235 284c0 -48 -40 -87 -88 -87s-87 39 -87 87s39 88 87 88s88 -40 88 -88z" />
    <glyph glyph-name="logicaland.ss01" horiz-adv-x="295" 
d="M235 284c0 -48 -40 -87 -88 -87s-87 39 -87 87s39 88 87 88s88 -40 88 -88z" />
    <glyph glyph-name="dotmath.ss01" horiz-adv-x="295" 
d="M235 284c0 -48 -40 -87 -88 -87s-87 39 -87 87s39 88 87 88s88 -40 88 -88z" />
    <glyph glyph-name="fi.ss01" horiz-adv-x="602" 
d="M311 407h-96v-407h-130v407h-54v99h54v65c0 74 45 149 151 149h75v-110h-51c-31 0 -45 -17 -45 -47v-57h96v-99zM529 0h-130v506h130v-506zM545 668c0 -45 -36 -82 -81 -82s-81 37 -81 82s36 81 81 81s81 -36 81 -81z" />
    <glyph glyph-name="diedotlc.ss01" 
d="M226 667c0 -37 -30 -67 -67 -67s-67 30 -67 67s30 67 67 67s67 -30 67 -67z" />
    <glyph glyph-name="diedotuc.ss01" horiz-adv-x="644" 
d="M276 844c0 -37 -30 -67 -67 -67s-67 30 -67 67s30 67 67 67s67 -30 67 -67z" />
    <glyph glyph-name="dieresislc.ss01" 
d="M452 667c0 -37 -30 -67 -67 -67s-67 30 -67 67s30 67 67 67s67 -30 67 -67zM226 667c0 -37 -30 -67 -67 -67s-67 30 -67 67s30 67 67 67s67 -30 67 -67z" />
    <glyph glyph-name="dieresisuc.ss01" horiz-adv-x="644" 
d="M502 844c0 -37 -30 -67 -67 -67s-67 30 -67 67s30 67 67 67s67 -30 67 -67zM276 844c0 -37 -30 -67 -67 -67s-67 30 -67 67s30 67 67 67s67 -30 67 -67z" />
    <glyph glyph-name="dotaccentlc.ss01" horiz-adv-x="500" 
d="M341 672c0 -37 -31 -67 -67 -67c-38 0 -68 30 -68 67s30 67 67 67s68 -30 68 -67z" />
    <glyph glyph-name="dotaccentuc.ss01" horiz-adv-x="500" 
d="M354 847c0 -37 -30 -68 -67 -68s-67 31 -67 67c0 38 30 68 67 68s67 -30 67 -67z" />
    <glyph glyph-name="zero.tosf" 
d="M489 206c0 -136 -101 -212 -217 -212s-217 76 -217 212v185c0 136 101 212 217 212s217 -76 217 -212v-185zM359 207v182c0 60 -36 97 -87 97s-87 -37 -87 -97v-182c0 -60 36 -96 87 -96s87 36 87 96z" />
    <glyph glyph-name="one.tosf" 
d="M379 0h-130v457l-146 -126v140l146 126h130v-597z" />
    <glyph glyph-name="two.tosf" 
d="M499 0h-447v117l233 199c44 38 71 70 71 108c0 48 -34 82 -86 82c-44 0 -87 -26 -87 -88h-130c0 128 97 205 217 205c123 0 216 -78 216 -197c0 -77 -55 -130 -127 -194l-129 -115h269v-117z" />
    <glyph glyph-name="three.tosf" 
d="M495 91c0 -142 -104 -213 -226 -213c-116 0 -225 61 -227 210h130c2 -64 46 -93 97 -93c56 0 96 35 96 99c0 59 -36 98 -100 98h-19v113h19c63 0 90 40 90 90c0 60 -40 91 -87 91c-49 0 -85 -32 -88 -86h-130c3 127 98 203 218 203c126 0 217 -84 217 -204
c0 -77 -35 -121 -82 -146c51 -27 92 -76 92 -162z" />
    <glyph glyph-name="four.tosf" 
d="M515 30h-65v-153h-125v153h-291v123l244 488h142l-244 -488h149v133h125v-133h65v-123z" />
    <glyph glyph-name="five.tosf" 
d="M493 125c0 -80 -11 -136 -63 -188c-32 -32 -83 -58 -157 -58s-128 26 -159 57c-44 44 -54 96 -58 148h130c7 -56 33 -88 87 -88c25 0 46 7 62 23c23 23 28 61 28 106c0 82 -24 128 -87 128c-53 0 -77 -30 -86 -58h-119v402h406v-117h-288v-153c19 18 59 36 107 36
c59 0 104 -19 133 -48c56 -56 64 -123 64 -190z" />
    <glyph glyph-name="six.tosf" 
d="M506 225c0 -147 -101 -231 -233 -231s-234 81 -234 228c0 83 23 144 69 227l155 279h139l-170 -297c22 11 44 15 76 15c105 0 198 -79 198 -221zM376 223c0 70 -42 117 -104 117c-60 0 -103 -44 -103 -117s43 -117 103 -117s104 44 104 117z" />
    <glyph glyph-name="seven.tosf" 
d="M501 480l-231 -595h-141l231 595h-188v-112h-124v229h453v-117z" />
    <glyph glyph-name="eight.tosf" 
d="M500 207c0 -138 -102 -213 -228 -213s-228 75 -228 213c0 87 51 134 90 160c-36 25 -80 72 -80 148c0 126 99 203 218 203s218 -77 218 -203c0 -76 -44 -123 -80 -148c39 -26 90 -73 90 -160zM370 209c0 55 -43 99 -98 99s-98 -44 -98 -99s43 -98 98 -98s98 43 98 98z
M360 511c0 51 -37 90 -88 90s-88 -39 -88 -90c0 -52 37 -90 88 -90s88 38 88 90z" />
    <glyph glyph-name="nine.tosf" 
d="M504 375c0 -83 -23 -144 -69 -227l-154 -279h-140l170 297c-22 -11 -44 -15 -76 -15c-105 0 -198 79 -198 221c0 147 101 231 233 231s234 -81 234 -228zM374 374c0 73 -43 117 -103 117s-104 -44 -104 -117c0 -70 42 -117 104 -117c60 0 103 44 103 117z" />
    <glyph glyph-name="grave.uc" horiz-adv-x="644" 
d="M377 781h-87l-114 170h137z" />
    <glyph glyph-name="dieresis.uc" horiz-adv-x="644" 
d="M488 783h-111v125h111v-125zM267 783h-111v125h111v-125z" />
    <glyph glyph-name="macron.uc" horiz-adv-x="500" 
d="M91 793v88h317v-88h-317z" />
    <glyph glyph-name="acute.uc" horiz-adv-x="644" 
d="M468 951l-114 -170h-87l64 170h137z" />
    <glyph glyph-name="circumflex.uc" horiz-adv-x="644" 
d="M506 781h-101l-83 91l-83 -91h-101l132 169h104z" />
    <glyph glyph-name="caron.uc" horiz-adv-x="548" 
d="M461 950l-132 -169h-104l-132 169h101l83 -90l83 90h101z" />
    <glyph glyph-name="breve.uc" horiz-adv-x="500" 
d="M414 930c-5 -108 -78 -151 -164 -151s-160 43 -164 151h87c5 -43 39 -60 77 -60s72 17 77 60h87z" />
    <glyph glyph-name="dotaccent.uc" horiz-adv-x="500" 
d="M192 789v116h115v-116h-115z" />
    <glyph glyph-name="ring.uc" horiz-adv-x="500" 
d="M381 884c0 -72 -59 -131 -131 -131s-131 59 -131 131s59 131 131 131s131 -58 131 -131zM308 884c0 32 -26 58 -58 58s-58 -26 -58 -58s26 -59 58 -59s58 27 58 59z" />
    <glyph glyph-name="tilde.uc" horiz-adv-x="644" 
d="M502 849c-44 -44 -75 -59 -113 -59c-30 0 -50 6 -78 23c-19 11 -36 18 -56 18c-17 0 -32 -3 -58 -29l-56 57c43 44 73 59 112 59c29 0 49 -6 77 -23c20 -12 35 -18 55 -18c17 0 32 2 59 29z" />
    <glyph glyph-name="hungarumlaut.uc" horiz-adv-x="500" 
d="M260 951l-113 -170h-88l64 170h137zM462 951l-115 -170h-86l63 170h138z" />
    <glyph glyph-name="brevecyr.uc" horiz-adv-x="500" 
d="M412 893c-4 -108 -83 -143 -162 -143s-158 35 -162 143h98c3 -44 28 -62 64 -62s61 18 64 62h98z" />
    <glyph glyph-name="diedot.uc" horiz-adv-x="644" 
d="M267 783h-111v125h111v-125z" />
    <glyph glyph-name="Tcedilla" horiz-adv-x="571" 
d="M541 588h-186v-588h-139v588h-186v124h511v-124zM360 -60l-44 -146h-121l69 146h96z" />
    <glyph glyph-name="caroncomma" 
d="M698 741l-60 -166h-91l36 166h115z" />
    <glyph glyph-name="commaaccent" horiz-adv-x="279" 
d="M199 -60l-44 -146h-121l69 146h96z" />
    <glyph glyph-name="commaturn" horiz-adv-x="279" 
d="M233 774l-114 -170h-87l64 170h137z" />
    <glyph glyph-name="tcedilla" horiz-adv-x="352" 
d="M307 0h-71c-106 0 -151 75 -151 149v258h-55v99h55v154h130v-154h92v-99h-92v-250c0 -30 14 -47 45 -47h47v-110zM239 -60l-44 -146h-121l69 146h96z" />
    <glyph glyph-name="undercommaaccent" horiz-adv-x="279" 
d="M199 -60l-44 -146h-121l69 146h96z" />
    <glyph glyph-name="commaaccent.ss01" horiz-adv-x="279" 
d="M196 -133c0 -57 -44 -101 -112 -101v64c24 0 39 17 39 37s-15 37 -39 37v64c69 0 112 -44 112 -101z" />
    <glyph glyph-name="undercommaaccent.ss01" horiz-adv-x="279" 
d="M196 -133c0 -57 -44 -101 -112 -101v64c24 0 39 17 39 37s-15 37 -39 37v64c69 0 112 -44 112 -101z" />
    <glyph glyph-name="commaturn.ss01" horiz-adv-x="279" 
d="M193 579c-69 0 -112 45 -112 101c0 57 43 101 112 101v-64c-24 0 -39 -17 -39 -37c0 -19 15 -37 39 -37v-64z" />
    <glyph glyph-name="Tcedilla.ss01" horiz-adv-x="571" 
d="M541 588h-186v-588h-139v588h-186v124h511v-124zM337 -133c0 -57 -44 -101 -112 -101v64c24 0 39 17 39 37s-15 37 -39 37v64c69 0 112 -44 112 -101z" />
    <glyph glyph-name="tcedilla.ss01" horiz-adv-x="352" 
d="M307 0h-71c-106 0 -151 75 -151 149v258h-55v99h55v154h130v-154h92v-99h-92v-250c0 -30 14 -47 45 -47h47v-110zM248 -133c0 -57 -44 -101 -112 -101v64c24 0 39 17 39 37s-15 37 -39 37v64c69 0 112 -44 112 -101z" />
    <glyph glyph-name="caroncomma.ss01" 
d="M690 629l-113 -88v206h113v-118z" />
    </font>
</defs>
</svg>
